<?xml version="1.0" standalone="no"?>
<!DOCTYPE svg PUBLIC "-//W3C//DTD SVG 1.1//EN" "http://www.w3.org/Graphics/SVG/1.1/DTD/svg11.dtd" >
<svg xmlns="http://www.w3.org/2000/svg" xmlns:xlink="http://www.w3.org/1999/xlink" version="1.1">
<metadata>
Created by FontForge 20170731 at Wed Nov  7 06:09:29 2018
 By Aleksey,,,
Copyright 2017 The Barlow Project Authors (https://github.com/jpt/barlow)
</metadata>
<defs>
<font id="Barlow-ExtraBoldItalic" horiz-adv-x="533" >
  <font-face 
    font-family="Barlow ExtraBold"
    font-weight="800"
    font-style="italic"
    font-stretch="normal"
    units-per-em="1000"
    panose-1="0 0 9 0 0 0 0 0 0 0"
    ascent="800"
    descent="-200"
    x-height="517"
    cap-height="700"
    bbox="-579.25 -238 1153 1106"
    underline-thickness="50"
    underline-position="-150"
    slope="-7"
    unicode-range="U+000D-FB02"
  />
<missing-glyph horiz-adv-x="479" 
d="M-15 0h470q5 0 5 5l85 690q0 5 -4 5h-470q-5 0 -5 -5l-85 -690q0 -5 4 -5zM187 259.5q-3 3.5 -2 8.5l2 14q5 38 26.5 60.5t60.5 46.5q30 18 44 32t14 34q0 17 -13 26.5t-36 9.5q-27 0 -44 -12t-19 -32l-1 -5q-1 -11 -13 -11l-91 4q-5 0 -8 3.5t-2 8.5q8 68 62.5 110
t132.5 42q69 0 109.5 -33.5t40.5 -90.5q0 -13 -1 -19q-6 -45 -29.5 -71t-63.5 -50q-27 -18 -40.5 -30.5t-15.5 -30.5v-6q-1 -5 -4.5 -8.5t-8.5 -3.5h-92q-5 0 -8 3.5zM178.5 105q-14.5 15 -14.5 39q0 30 19.5 50t48.5 20q24 0 38.5 -14t14.5 -37q0 -31 -19.5 -52t-48.5 -21
q-24 0 -38.5 15z" />
    <glyph glyph-name="fi" unicode="fi" horiz-adv-x="632" 
d="M405 506l-14 -112q-1 -5 -4.5 -8.5t-8.5 -3.5h-92q-2 0 -3.5 -1.5t-1.5 -3.5l-45 -365q-1 -5 -4.5 -8.5t-8.5 -3.5h-138q-5 0 -8 3.5t-2 8.5l45 365q0 5 -4 5h-55q-5 0 -8 3.5t-2 8.5l14 112q1 5 4.5 8.5t8.5 3.5h54q6 0 6 5l3 27q7 59 31.5 92.5t71 47t122.5 10.5h40
q5 0 8 -3.5t2 -8.5l-11 -91q-1 -5 -4.5 -8.5t-8.5 -3.5h-38q-26 -2 -38 -13t-16 -37l-1 -12q0 -5 4 -5h91q11 0 11 -12zM505.5 584q-20.5 21 -20.5 54q0 43 28 71t68 28q34 0 54.5 -20t20.5 -54q0 -42 -28.5 -71t-67.5 -29q-34 0 -54.5 21zM413 3.5q-3 3.5 -2 8.5l60 493
q1 5 4.5 8.5t8.5 3.5h138q5 0 8 -3.5t2 -8.5l-60 -493q-1 -5 -4.5 -8.5t-8.5 -3.5h-138q-5 0 -8 3.5z" />
    <glyph glyph-name="fl" unicode="fl" horiz-adv-x="628" 
d="M405 506l-14 -112q-1 -5 -4.5 -8.5t-8.5 -3.5h-92q-2 0 -3.5 -1.5t-1.5 -3.5l-45 -365q-1 -5 -4.5 -8.5t-8.5 -3.5h-138q-5 0 -8 3.5t-2 8.5l45 365q0 5 -4 5h-55q-5 0 -8 3.5t-2 8.5l14 112q1 5 4.5 8.5t8.5 3.5h54q6 0 6 5l3 27q7 59 31.5 92.5t71 47t122.5 10.5h40
q5 0 8 -3.5t2 -8.5l-11 -91q-1 -5 -4.5 -8.5t-8.5 -3.5h-38q-26 -2 -38 -13t-16 -37l-1 -12q0 -5 4 -5h91q11 0 11 -12zM411 3.5q-3 3.5 -2 8.5l83 676q1 5 4.5 8.5t8.5 3.5h138q5 0 8 -3.5t2 -8.5l-83 -676q-1 -5 -4.5 -8.5t-8.5 -3.5h-138q-5 0 -8 3.5z" />
    <glyph glyph-name="I_J.liga" unicode="IJ" horiz-adv-x="824" 
d="M32 3.5q-3 3.5 -2 8.5l83 676q0 5 4 8.5t9 3.5h137q11 0 11 -12l-83 -676q-1 -5 -4.5 -8.5t-8.5 -3.5h-138q-5 0 -8 3.5zM338.5 46.5q-60.5 54.5 -60.5 145.5q0 10 2 34l7 59q1 5 4.5 8.5t8.5 3.5h138q5 0 8 -3.5t2 -8.5l-7 -58q-1 -5 -1 -16q0 -36 21 -56.5t60 -20.5
q40 0 69.5 25.5t34.5 67.5l57 461q1 5 4.5 8.5t8.5 3.5h137q5 0 8 -3.5t2 -8.5l-57 -462q-8 -69 -46.5 -122t-100 -82.5t-135.5 -29.5q-104 0 -164.5 54.5z" />
    <glyph glyph-name="f_f_i.liga" unicode="ffi" horiz-adv-x="954" 
d="M827.5 584q-20.5 21 -20.5 54q0 43 27.5 71t67.5 28q34 0 54.5 -20t20.5 -54q0 -42 -28 -71t-68 -29q-33 0 -53.5 21zM624 522q-2 -5 4 -5h93q5 0 8 -3.5t2 -8.5l-13 -109q-1 -5 -4.5 -8.5t-8.5 -3.5h-93q-4 0 -6 -5l-45 -367q-1 -5 -4.5 -8.5t-8.5 -3.5h-138
q-5 0 -8 3.5t-2 8.5l45 367q2 5 -4 5h-155q-4 0 -6 -5l-45 -367q-1 -5 -4.5 -8.5t-8.5 -3.5h-138q-5 0 -8 3.5t-2 8.5l45 367q2 5 -4 5h-53q-5 0 -8 3.5t-2 8.5l13 109q1 5 4.5 8.5t8.5 3.5h53q4 0 6 5l4 32q9 77 54.5 112t139.5 35l30 -1h40q5 0 8 -3.5t2 -8.5l-10 -87
q-1 -5 -5 -8.5t-9 -3.5h-39q-26 -2 -37.5 -13.5t-14.5 -36.5l-2 -17q-2 -5 4 -5h155q4 0 6 5l4 32q9 77 54.5 112t140.5 35l30 -1h40q5 0 8 -3.5t2 -8.5l-11 -87q0 -5 -4 -8.5t-9 -3.5h-39q-26 -2 -38 -13.5t-15 -36.5zM734 3.5q-3 3.5 -2 8.5l60 493q1 5 5 8.5t9 3.5h137
q5 0 8 -3.5t2 -8.5l-60 -493q-1 -5 -4.5 -8.5t-8.5 -3.5h-138q-5 0 -8 3.5z" />
    <glyph glyph-name="f_f_l.liga" unicode="ffl" horiz-adv-x="945" 
d="M624 522q-2 -5 4 -5h93q5 0 8 -3.5t2 -8.5l-13 -109q-1 -5 -4.5 -8.5t-8.5 -3.5h-93q-4 0 -6 -5l-45 -367q-1 -5 -4.5 -8.5t-8.5 -3.5h-138q-5 0 -8 3.5t-2 8.5l45 367q2 5 -4 5h-155q-4 0 -6 -5l-45 -367q-1 -5 -4.5 -8.5t-8.5 -3.5h-138q-5 0 -8 3.5t-2 8.5l45 367
q2 5 -4 5h-53q-5 0 -8 3.5t-2 8.5l13 109q1 5 4.5 8.5t8.5 3.5h53q4 0 6 5l4 32q9 77 54.5 112t139.5 35l30 -1h40q5 0 8 -3.5t2 -8.5l-10 -87q-1 -5 -5 -8.5t-9 -3.5h-39q-26 -2 -37.5 -13.5t-14.5 -36.5l-2 -17q-2 -5 4 -5h155q4 0 6 5l4 32q9 77 54.5 112t140.5 35l30 -1
h40q5 0 8 -3.5t2 -8.5l-11 -87q0 -5 -4 -8.5t-9 -3.5h-39q-26 -2 -38 -13.5t-15 -36.5zM812.5 696.5q3.5 3.5 8.5 3.5h138q5 0 8 -3.5t2 -8.5l-83 -676q-1 -5 -4.5 -8.5t-8.5 -3.5h-138q-5 0 -8 3.5t-2 8.5l83 676q1 5 4.5 8.5z" />
    <glyph glyph-name="g_j.liga" unicode="gj" horiz-adv-x="783" 
d="M656.5 583.5q-20.5 20.5 -20.5 52.5q0 44 27.5 72.5t68.5 28.5q32 0 52.5 -20t20.5 -53q0 -43 -27.5 -72t-67.5 -29q-33 0 -53.5 20.5zM547 513.5q3 -3.5 2 -8.5l-55 -447q-17 -137 -100.5 -196t-201.5 -59q-45 0 -91 8q-9 1 -8 13l20 124q1 13 15 10q38 -9 73 -9
q55 0 90 26t42 82l-8 -7q-39 -36 -105 -36q-64 0 -114 29t-64 102q-5 23 -5 56q0 24 4 62q9 74 34 126q30 62 83.5 99t118.5 37q71 0 102 -44q2 -2 4 -1.5t2 3.5l3 22q1 5 4.5 8.5t8.5 3.5h138q5 0 8 -3.5zM622 505q1 5 4.5 8.5t8.5 3.5h138q5 0 8 -3.5t2 -8.5l-60 -490
q-11 -89 -36.5 -136t-75.5 -65.5t-141 -15.5q-12 0 -10 12l14 114q2 12 13 12q37 -2 53 14.5t21 62.5zM358 264q4 34 4 40q0 15 -5 32q-5 22 -20 34.5t-40 12.5q-45 0 -70 -47q-19 -28 -24 -74q-2 -12 -2 -33q0 -24 6 -39q5 -21 21 -34t41 -13q49 0 71 46q12 24 18 75z" />
    <glyph glyph-name="i_j.liga" unicode="ij" horiz-adv-x="494" 
d="M118.5 584q-20.5 21 -20.5 54q0 43 28 71t68 28q34 0 54.5 -20t20.5 -54q0 -42 -28.5 -71t-67.5 -29q-34 0 -54.5 21zM362 584q-20 21 -20 54q0 43 27.5 71t67.5 28q33 0 53.5 -20t20.5 -53q0 -43 -27.5 -72t-68.5 -29q-33 0 -53 21zM33 3.5q-3 3.5 -2 8.5l60 493
q1 5 4.5 8.5t8.5 3.5h138q5 0 8 -3.5t2 -8.5l-60 -493q-1 -5 -5 -8.5t-9 -3.5h-137q-5 0 -8 3.5zM134 -190l14 115q2 13 14 11q58 -3 82 13.5t29 63.5l61 492q0 5 4 8.5t9 3.5h137q11 0 11 -12l-61 -490q-11 -89 -39.5 -136t-86.5 -65.5t-164 -15.5q-12 0 -10 12z" />
    <glyph glyph-name="hyphen_hyphen.liga" unicode="&#x2d;&#x2d;" horiz-adv-x="630" 
d="M35 221.5q-3 3.5 -2 8.5l14 117q1 5 4.5 8.5t8.5 3.5h558q5 0 8 -3.5t2 -8.5l-14 -117q-1 -5 -4.5 -8.5t-8.5 -3.5h-558q-5 0 -8 3.5z" />
    <glyph glyph-name=".notdef" horiz-adv-x="479" 
d="M-15 0h470q5 0 5 5l85 690q0 5 -4 5h-470q-5 0 -5 -5l-85 -690q0 -5 4 -5zM187 259.5q-3 3.5 -2 8.5l2 14q5 38 26.5 60.5t60.5 46.5q30 18 44 32t14 34q0 17 -13 26.5t-36 9.5q-27 0 -44 -12t-19 -32l-1 -5q-1 -11 -13 -11l-91 4q-5 0 -8 3.5t-2 8.5q8 68 62.5 110
t132.5 42q69 0 109.5 -33.5t40.5 -90.5q0 -13 -1 -19q-6 -45 -29.5 -71t-63.5 -50q-27 -18 -40.5 -30.5t-15.5 -30.5v-6q-1 -5 -4.5 -8.5t-8.5 -3.5h-92q-5 0 -8 3.5zM178.5 105q-14.5 15 -14.5 39q0 30 19.5 50t48.5 20q24 0 38.5 -14t14.5 -37q0 -31 -19.5 -52t-48.5 -21
q-24 0 -38.5 15z" />
    <glyph glyph-name=".null" horiz-adv-x="0" 
 />
    <glyph glyph-name="nonmarkingreturn" unicode="&#xd;" horiz-adv-x="194" 
 />
    <glyph glyph-name="NULL" horiz-adv-x="0" 
 />
    <glyph glyph-name="NULL" horiz-adv-x="0" 
 />
    <glyph glyph-name="space" unicode=" " horiz-adv-x="194" 
 />
    <glyph glyph-name="exclam" unicode="!" horiz-adv-x="342" 
d="M122 247.5q-3 3.5 -2 8.5l36 432q1 5 4.5 8.5t8.5 3.5h138q12 0 10 -12l-69 -432q-1 -5 -4.5 -8.5t-8.5 -3.5h-105q-5 0 -8 3.5zM91.5 22q-20.5 21 -20.5 54q0 42 27.5 70t68.5 28q34 0 54.5 -20t20.5 -54q0 -42 -28.5 -70.5t-67.5 -28.5q-34 0 -54.5 21z" />
    <glyph glyph-name="quotedbl" unicode="&#x22;" horiz-adv-x="381" 
d="M67.5 468.5q-3.5 3.5 -3.5 8.5l11 210q0 12 12 12h130q12 0 9 -12l-40 -210q-1 -5 -5 -8.5t-9 -3.5h-96q-5 0 -8.5 3.5zM278 477l10 210q0 12 12 12h131q12 0 9 -12l-41 -210q-3 -12 -14 -12h-96q-11 0 -11 12z" />
    <glyph glyph-name="numbersign" unicode="#" horiz-adv-x="675" 
d="M664.5 398.5q-3.5 -3.5 -8.5 -3.5h-74q-6 0 -6 -5l-21 -78q0 -5 4 -5h51q5 0 8 -3.5t2 -8.5l-15 -117q-1 -5 -4.5 -8.5t-8.5 -3.5h-72q-5 0 -7 -5l-32 -119q-3 -11 -14 -11h-137q-12 0 -9 13l31 117q2 5 -3 5h-76q-5 0 -7 -5l-32 -119q-3 -11 -14 -11h-138q-12 0 -9 13
l32 117q0 5 -3 5h-53q-5 0 -8 3.5t-2 8.5l15 117q1 5 4.5 8.5t8.5 3.5h74q2 0 4 1.5t2 3.5l20 78q2 5 -3 5h-51q-5 0 -8 3.5t-2 8.5l15 118q1 5 4.5 8.5t8.5 3.5h72q6 0 6 5l32 120q3 11 14 11l138 -1q12 0 9 -13l-32 -117q0 -5 3 -5h77q6 0 6 5l33 120q3 11 14 11l137 -1
q12 0 9 -13l-31 -117q-2 -5 3 -5h52q5 0 8 -3.5t2 -8.5l-14 -118q-1 -5 -4.5 -8.5zM394 312l21 78q0 5 -4 5h-76q-5 0 -7 -5l-20 -78q0 -5 3 -5h77q6 0 6 5z" />
    <glyph glyph-name="dollar" unicode="$" horiz-adv-x="559" 
d="M479 76.5q-56 -60.5 -148 -78.5q-6 -2 -6 -6l-6 -63q-1 -5 -4.5 -8.5t-8.5 -3.5h-118q-5 0 -8 3.5t-2 8.5l9 65q1 4 -3 6q-72 17 -111.5 63.5t-39.5 115.5q0 10 2 30l3 19q1 5 4.5 8.5t8.5 3.5h128q5 0 8 -3.5t2 -8.5l-1 -12q-4 -33 23.5 -57.5t79.5 -24.5q45 0 66.5 22
t21.5 49q0 18 -13 30t-31.5 20t-69.5 27q-54 20 -93 42t-67 59.5t-28 92.5q0 9 2 27q10 76 61.5 128t128.5 69q5 2 5 6l8 74q1 5 4.5 8.5t8.5 3.5h117q5 0 8.5 -3.5t2.5 -8.5l-11 -75q-2 -4 3 -6q69 -18 110 -67.5t41 -119.5q0 -8 -2 -28l-2 -14q-1 -5 -4.5 -8.5t-8.5 -3.5
h-129q-5 0 -8 3.5t-2 8.5l1 7q4 35 -21 62t-74 27q-40 0 -63 -19t-23 -51q0 -26 27 -43t100 -44q7 -3 59.5 -22.5t85.5 -60.5t33 -97q0 -92 -56 -152.5z" />
    <glyph glyph-name="percent" unicode="%" horiz-adv-x="792" 
d="M134 422q-40 41 -40 103q0 49 25.5 91t67.5 67t88 25q61 0 101 -41t40 -102q0 -49 -25.5 -91.5t-67 -67.5t-88.5 -25q-61 0 -101 41zM136.5 4q-1.5 4 1.5 10l449 678q6 8 16 8h88q9 0 9 -6q0 -3 -3 -8l-448 -678q-5 -8 -15 -8h-89q-7 0 -8.5 4zM299 500q22 23 22 54
q0 25 -16.5 42t-41.5 17q-29 0 -51.5 -23t-22.5 -54q0 -25 16.5 -42t41.5 -17q30 0 52 23zM471 33q-40 41 -40 102q0 49 25 91t67 67.5t89 25.5q61 0 101 -41t40 -102q0 -49 -25.5 -91.5t-67 -67.5t-88.5 -25q-61 0 -101 41zM635 110q22 23 22 55q0 25 -16 41.5t-40 16.5
q-30 0 -52.5 -22.5t-22.5 -52.5q0 -26 16.5 -43.5t41.5 -17.5q29 0 51 23z" />
    <glyph glyph-name="ampersand" unicode="&#x26;" horiz-adv-x="700" 
d="M641 8q0 -4 -3 -6t-8 -2h-154q-9 0 -14 6l-28 37q-3 3 -7 1q-97 -52 -198 -52q-86 0 -143 38.5t-57 116.5q0 8 2 26q8 66 47 111t101 80q5 4 2 7q-32 46 -44.5 75.5t-12.5 57.5q0 55 30 101.5t83 74.5t121 28q89 0 143 -46t54 -122q0 -71 -39 -122t-105 -91q-5 -4 -3 -7
l57 -74q2 -4 6 0q44 39 71 79q4 5 8.5 6.5t8.5 -1.5l95 -60q9 -7 3 -16q-48 -67 -103 -119q-3 -3 0 -7q53 -72 54 -73l30 -40q3 -3 3 -7zM301 544.5q-16 -13.5 -16 -34.5q0 -9 7 -23.5t28 -45.5q1 -3 7 -2q31 18 48 36.5t17 41.5q0 19 -13 30t-36 11q-26 0 -42 -13.5z
M339 154q5 4 2 7l-37 47q-7 8 -19 24l-15 19q-1 3 -6 1q-28 -16 -44.5 -31t-21.5 -33q-3 -9 -3 -17q0 -19 15 -30t41 -11q15 0 24 2q31 6 64 22z" />
    <glyph glyph-name="quotesingle" unicode="'" horiz-adv-x="176" 
d="M65 478l10 210q0 12 12 12h139q12 0 9 -12l-41 -210q-2 -5 -6 -8.5t-9 -3.5h-103q-11 0 -11 12z" />
    <glyph glyph-name="parenleft" unicode="(" horiz-adv-x="366" 
d="M104 -80q-89 134 -89 313q0 52 7 102q30 248 184 415q6 7 15 7h134q9 0 9 -6q0 -3 -3 -8q-58 -84 -100.5 -183t-58.5 -225q-7 -52 -7 -106q0 -160 66 -302q1 -2 1 -5q0 -9 -11 -9h-134q-9 0 -13 7z" />
    <glyph glyph-name="parenright" unicode=")" horiz-adv-x="366" 
d="M306 750q89 -131 89 -315q0 -46 -6 -99q-31 -249 -184 -416q-7 -7 -16 -7h-135q-6 0 -8 4t2 10q59 85 101.5 184t58.5 224q7 52 7 105q0 157 -67 303q-1 2 -1 5q0 4 3 6.5t8 2.5h135q9 0 13 -7z" />
    <glyph glyph-name="asterisk" unicode="*" horiz-adv-x="387" 
d="M181 396.5q-3 3.5 -2 8.5l10 79q1 3 -1 4t-4 -1l-78 -44q-4 -2 -7 -2q-6 0 -9 7l-26 64q-1 2 -1 5q0 9 8 12l78 39q5 3 1 6l-69 38q-10 7 -3 16l42 64q4 5 8.5 6.5t8.5 -1.5l67 -43q5 -4 7 3l8 78q1 5 4.5 8.5t8.5 3.5h67q5 0 8 -3.5t2 -8.5l-10 -78q-1 -3 1 -4.5t4 0.5
l79 44q4 2 7 2q6 0 9 -7l25 -64q1 -2 1 -6q0 -6 -7 -10l-80 -38q-4 -3 -1 -6l70 -40q6 -3 6 -8q0 -3 -3 -8l-41 -64q-3 -5 -7.5 -6.5t-9.5 1.5l-68 44q-2 2 -4 1t-2 -4l-9 -79q-1 -5 -4.5 -8.5t-8.5 -3.5h-67q-5 0 -8 3.5z" />
    <glyph glyph-name="plus" unicode="+" horiz-adv-x="466" 
d="M466 355l-15 -118q-1 -5 -4.5 -8.5t-8.5 -3.5h-123q-4 0 -6 -5l-15 -126q-1 -5 -4.5 -8.5t-8.5 -3.5h-114q-5 0 -8 3.5t-2 8.5l16 126q0 5 -5 5h-124q-5 0 -8 3.5t-2 8.5l14 118q1 5 5 8.5t9 3.5h124q5 0 5 5l16 128q1 5 4.5 8.5t8.5 3.5h113q5 0 8.5 -3.5t2.5 -8.5
l-16 -128q0 -5 4 -5h123q11 0 11 -12z" />
    <glyph glyph-name="comma" unicode="," horiz-adv-x="257" 
d="M1.5 -101.5q-2.5 3.5 -1.5 9.5l59 240q3 11 13 11h119q12 0 8 -13l-90 -241q-4 -10 -15 -10h-85q-5 0 -7.5 3.5z" />
    <glyph glyph-name="hyphen" unicode="-" horiz-adv-x="402" 
d="M35 222.5q-3 3.5 -2 8.5l15 118q1 5 4.5 8.5t8.5 3.5h330q5 0 8 -3.5t2 -8.5l-15 -118q-1 -5 -4.5 -8.5t-8.5 -3.5h-330q-5 0 -8 3.5z" />
    <glyph glyph-name="period" unicode="." horiz-adv-x="259" 
d="M49.5 15q-20.5 21 -20.5 54q0 43 28 71t68 28q34 0 54 -20t20 -54q0 -42 -28 -71t-67 -29q-34 0 -54.5 21z" />
    <glyph glyph-name="slash" unicode="/" horiz-adv-x="483" 
d="M3 14l345 677q3 9 14 9h136q13 0 7 -14l-344 -677q-4 -9 -15 -9h-136q-13 0 -7 14z" />
    <glyph glyph-name="zero" unicode="0" horiz-adv-x="554" 
d="M98.5 41.5q-56.5 53.5 -56.5 146.5q0 19 3 40l30 244q13 109 85.5 172.5t183.5 63.5q101 0 158 -53t57 -146q0 -11 -2 -37l-30 -244q-14 -111 -87 -175.5t-184 -64.5q-101 0 -157.5 53.5zM335.5 154.5q24.5 23.5 28.5 64.5l32 259q1 6 1 16q0 34 -18.5 53t-51.5 19
q-37 0 -61 -23.5t-29 -64.5l-32 -259q-1 -5 -1 -15q0 -34 18.5 -53.5t50.5 -19.5q38 0 62.5 23.5z" />
    <glyph glyph-name="one" unicode="1" horiz-adv-x="344" 
d="M217 700h142q5 0 8 -3.5t2 -8.5l-83 -676q-1 -5 -4.5 -8.5t-8.5 -3.5h-138q-5 0 -8 3.5t-2 8.5l65 529q0 2 -2 4t-4 1l-97 -23l-4 -1q-10 0 -8 11l11 105q2 10 11 14l105 45q7 3 15 3z" />
    <glyph glyph-name="two" unicode="2" horiz-adv-x="551" 
d="M252.5 144q0.5 -2 3.5 -2h247q11 0 11 -12l-15 -118q-1 -5 -4.5 -8.5t-8.5 -3.5h-455q-5 0 -8 3.5t-2 8.5l14 111q0 9 8 15q70 60 174 162q-2 -2 65 62q100 95 105 137q4 29 -14.5 48t-51.5 19q-34 0 -56 -19t-26 -50l-3 -24q-1 -5 -5 -8.5t-9 -3.5h-139q-5 0 -8 3.5
t-2 8.5l6 50q11 56 48 98t92 64.5t119 22.5q67 0 115 -24t73 -65.5t25 -92.5q0 -48 -25 -95.5t-75 -100.5q-46 -49 -167 -155l-30 -27q-2 -2 -1.5 -4z" />
    <glyph glyph-name="three" unicode="3" horiz-adv-x="532" 
d="M510 269q0 -12 -2 -36q-7 -53 -32 -101q-33 -65 -95 -102.5t-139 -37.5q-76 0 -129.5 38.5t-71.5 104.5q-9 32 -9 67l1 21q1 6 4.5 9t8.5 3h140q11 0 11 -12q-2 -28 6 -48q5 -20 19.5 -30.5t35.5 -10.5q41 0 66 38q18 26 21 66q2 18 2 26q0 27 -7 44q-14 37 -57 37
q-11 0 -25 -7.5t-36 -22.5q-4 -3 -8 -3q-5 0 -8 6l-57 100q-2 4 -2 7q0 6 6 10l164 117q2 2 2 4t-3 2h-213q-5 0 -8 3.5t-2 8.5l15 118q1 5 4.5 8.5t8.5 3.5h423q5 0 8 -3.5t2 -8.5l-16 -133q-1 -9 -9 -15l-129 -95q-5 -5 1 -7q76 -21 100 -102q9 -31 9 -67z" />
    <glyph glyph-name="four" unicode="4" horiz-adv-x="605" 
d="M581 318.5q3 -3.5 2 -8.5l-15 -123q-1 -5 -4.5 -8.5t-8.5 -3.5h-42q-5 0 -5 -5l-20 -158q0 -5 -4 -8.5t-9 -3.5h-137q-11 0 -11 12l20 158q0 5 -4 5h-303q-5 0 -8 3.5t-2 8.5l12 97q0 3 4 15l215 392q5 9 15 9h148q6 0 8.5 -3.5t-1.5 -10.5l-197 -358q-1 -2 0 -4t2 -2
h125q5 0 5 5l14 112q1 5 4.5 8.5t8.5 3.5h138q5 0 8 -3.5t2 -8.5l-14 -112q0 -5 4 -5h42q5 0 8 -3.5z" />
    <glyph glyph-name="five" unicode="5" horiz-adv-x="531" 
d="M516 261q0 -10 -2 -34q-7 -53 -29 -96q-33 -62 -96.5 -99.5t-139.5 -37.5q-77 0 -130.5 36.5t-72.5 99.5q-8 27 -8 60q0 13 13 13h142q9 0 12 -10q1 -6 5 -16q13 -41 54 -41q21 0 38.5 10.5t29.5 30.5q14 20 17 50q1 6 1 18q0 18 -5 30q-4 18 -19 28.5t-35 10.5
q-22 0 -43 -11t-30 -28q-5 -10 -14 -10h-144q-5 0 -8 3.5t-2 8.5l50 411q1 5 4.5 8.5t8.5 3.5h425q5 0 8 -3.5t2 -8.5l-14 -118q-1 -5 -4.5 -8.5t-8.5 -3.5h-271q-4 0 -6 -5l-14 -117q0 -6 5 -3q44 24 94 24q68 0 116 -36t64 -98q7 -28 7 -62z" />
    <glyph glyph-name="six" unicode="6" horiz-adv-x="529" 
d="M514 264q0 -24 -2 -37q-7 -58 -32 -101q-33 -61 -94.5 -96.5t-137.5 -35.5t-129 36t-71 99q-9 29 -9 62q0 18 3 37l36 297q7 54 41 95.5t88.5 64.5t121.5 23q92 0 148 -43.5t56 -114.5q0 -7 -2 -23l-4 -34q-1 -5 -4.5 -8.5t-8.5 -3.5h-138q-5 0 -8 3.5t-2 8.5l1 10l1 9
q0 24 -15.5 39t-41.5 15q-29 0 -50 -18.5t-25 -46.5l-9 -78q-1 -3 1 -4t4 1q41 30 102 30q59 0 104.5 -30t65.5 -86q10 -30 10 -70zM352 237q0 25 -10 44q-16 30 -55 30q-41 0 -63 -31q-17 -22 -21 -56q-1 -6 -1 -16q0 -20 7 -38q15 -34 56 -34q40 0 64 34q23 30 23 67z" />
    <glyph glyph-name="seven" unicode="7" horiz-adv-x="489" 
d="M82 14l273 538q1 2 0 4t-3 2h-154q-2 0 -3.5 -1.5t-1.5 -3.5l-6 -47q-1 -5 -4.5 -8.5t-8.5 -3.5h-108q-5 0 -8 3.5t-2 8.5l24 182q0 5 4 8.5t9 3.5h439q5 0 8 -3.5t2 -8.5l-15 -122q0 -3 -4 -15l-272 -542q-3 -9 -14 -9h-147q-14 0 -8 14z" />
    <glyph glyph-name="eight" unicode="8" 
d="M512 237q0 -70 -37 -127q-33 -54 -92.5 -86t-135.5 -32q-73 0 -126.5 30t-74.5 88q-13 32 -13 71q0 35 11 70.5t27 61.5q21 32 48 51q5 3 2 7q-20 18 -33 48q-11 28 -11 62q0 43 15.5 81.5t44.5 69.5q35 39 87 60.5t111 21.5q61 0 106.5 -22t70.5 -60q30 -44 30 -100
q0 -64 -37 -117q-17 -24 -42 -43q-5 -4 -2 -7q26 -21 37 -52q14 -35 14 -76zM238 498q-1 -5 -1 -14q0 -16 6 -30q15 -31 55 -31q20 0 37.5 8t28.5 23q13 17 16 45q1 5 1 14q0 13 -4 22q-6 17 -22 27t-38 10q-44 0 -67 -37q-11 -22 -12 -37zM349 224q1 7 1 19q0 20 -6 33
q-12 37 -58 37q-44 0 -67 -37q-18 -32 -18 -72q0 -22 8 -38q15 -31 55 -31t62 28q17 21 23 61z" />
    <glyph glyph-name="nine" unicode="9" horiz-adv-x="518" 
d="M526 506q0 -11 -2 -33l-37 -298q-6 -54 -40 -95.5t-89 -64.5t-122 -23q-93 0 -148 43.5t-55 116.5q0 14 1 22l4 33q1 5 4.5 8.5t8.5 3.5h138q5 0 8 -3.5t2 -8.5l-1 -9q-3 -27 12.5 -45t43.5 -18q29 0 50 18t25 46l9 77q1 3 -1 4t-4 -1q-42 -29 -101 -29q-58 0 -104 30
t-67 86q-10 29 -10 67q0 19 3 40q7 56 31 101q33 61 94.5 96.5t138.5 35.5q75 0 128 -36t71 -99q9 -30 9 -65zM362 476q1 6 1 16q0 21 -7 38q-14 34 -55 34t-64 -33q-22 -28 -22 -72q0 -24 8 -40q17 -30 55 -30q42 0 64 31q16 23 20 56z" />
    <glyph glyph-name="colon" unicode=":" horiz-adv-x="362" 
d="M143.5 347q-20.5 21 -20.5 54q0 43 28 71t68 28q34 0 54 -20t20 -54q0 -42 -28 -71t-67 -29q-34 0 -54.5 21zM104.5 23q-20.5 21 -20.5 54q0 43 28 71t68 28q34 0 54 -20t20 -54q0 -42 -28 -71t-67 -29q-34 0 -54.5 21z" />
    <glyph glyph-name="semicolon" unicode=";" horiz-adv-x="308" 
d="M109.5 325q-24.5 24 -24.5 60q0 9 1 13q4 39 38 67.5t72 28.5q36 0 62.5 -25t26.5 -61q0 -43 -33 -75t-79 -32q-39 0 -63.5 24zM35 -100.5q-3 3.5 -2 9.5l52 238q3 11 13 11h120q13 0 9 -13l-86 -239q-4 -10 -15 -10h-83q-5 0 -8 3.5z" />
    <glyph glyph-name="less" unicode="&#x3c;" horiz-adv-x="466" 
d="M421 23.5q-4 -2.5 -10 0.5l-373 177q-7 4 -7 14l15 122q2 10 11 14l416 177q4 2 6 2q9 0 7 -11l-17 -133q-1 -10 -10 -14l-246 -93q-6 -3 -1 -6l223 -94q8 -4 7 -14l-16 -132q-1 -7 -5 -9.5z" />
    <glyph glyph-name="equal" unicode="=" horiz-adv-x="466" 
d="M47 316.5q-3 3.5 -2 8.5l14 118q1 5 5 8.5t9 3.5h393q11 0 11 -12l-15 -118q-1 -5 -4.5 -8.5t-8.5 -3.5h-394q-5 0 -8 3.5zM24 129.5q-3 3.5 -2 8.5l14 118q1 5 5 8.5t9 3.5h393q11 0 11 -12l-15 -118q-1 -5 -4.5 -8.5t-8.5 -3.5h-394q-5 0 -8 3.5z" />
    <glyph glyph-name="greater" unicode="&#x3e;" horiz-adv-x="466" 
d="M15 22q-3 0 -5 3t-1 8l16 132q1 10 11 14l246 94q6 3 1 6l-224 93q-8 4 -7 14l17 133q1 7 5 9.5t9 -0.5l373 -177q9 -4 7 -14l-15 -122q0 -9 -10 -14l-417 -177q-4 -2 -6 -2z" />
    <glyph glyph-name="question" unicode="?" horiz-adv-x="527" 
d="M178 232.5q-3 3.5 -2 8.5l3 24q7 53 38 85t84 65q42 26 61.5 45.5t19.5 47.5q0 24 -18 37.5t-50 13.5q-37 0 -61 -17.5t-27 -45.5l-2 -11q-1 -11 -13 -11l-137 6q-4 0 -7 4t-3 9l1 3q7 63 44 111.5t96 75.5t131 27q98 0 155 -47.5t57 -127.5q0 -8 -2 -26
q-6 -45 -25.5 -76.5t-43.5 -51.5t-61 -43q-36 -22 -55 -40t-22 -43l-2 -14q-1 -5 -4.5 -8.5t-8.5 -3.5h-138q-5 0 -8 3.5zM167.5 17q-20.5 21 -20.5 54q0 43 27.5 71t67.5 28q34 0 54.5 -20t20.5 -54q0 -42 -28.5 -71t-67.5 -29q-33 0 -53.5 21z" />
    <glyph glyph-name="at" unicode="@" horiz-adv-x="793" 
d="M664 641q63 -33 95.5 -92.5t32.5 -138.5q0 -47 -12 -100q-24 -100 -78.5 -156t-137.5 -56q-67 0 -102 38q-3 5 -6 0q-23 -19 -53 -28.5t-61 -9.5q-54 0 -83 31.5t-29 80.5q0 35 10 73q12 45 31 82q24 51 64.5 77.5t84.5 26.5q48 0 67 -30q2 -2 4 -1.5t3 3.5l3 16
q3 11 14 11h83q12 0 9 -13l-45 -179q-6 -19 -6 -37t7.5 -29t23.5 -11q50 0 76 104q14 50 14 96q0 84 -48.5 125t-134.5 41q-78 0 -145 -34t-114 -97.5t-68 -148.5q-12 -48 -12 -88q0 -84 50 -128.5t140 -44.5q45 0 82.5 10.5t63.5 27.5q4 3 8 3t7 -5l40 -70q2 -4 2 -6
q0 -6 -6 -10q-40 -29 -100.5 -46t-121.5 -17q-82 0 -145.5 32.5t-99 93.5t-35.5 145q0 55 14 111q28 112 96.5 198.5t164.5 134.5t201 48q89 0 152 -33zM427 225q15 20 24 59q6 30 6 58q-1 15 -10.5 24t-25.5 9t-30 -9t-23 -25q-10 -15 -24 -62q-8 -29 -8 -46
q0 -20 10.5 -31t30.5 -11q30 0 50 34z" />
    <glyph glyph-name="A" unicode="A" horiz-adv-x="673" 
d="M463 3q-3 3 -4 7l-14 89q-2 4 -5 4h-221q-3 0 -5 -4l-36 -89q-5 -10 -15 -10h-148q-6 0 -8.5 3.5t0.5 10.5l290 676q5 10 14 10h183q9 0 12 -10l125 -676v-4q0 -10 -11 -10h-149q-5 0 -8 3zM273 231h144q5 0 5 6l-42 257q-1 4 -3 3.5t-3 -3.5l-104 -257q-3 -6 3 -6z" />
    <glyph glyph-name="B" unicode="B" horiz-adv-x="599" 
d="M496 358q71 -41 71 -129q0 -9 -2 -31q-13 -100 -86 -149t-181 -49h-258q-5 0 -8 3.5t-2 8.5l83 676q0 5 4 8.5t9 3.5h250q107 0 162.5 -38t55.5 -122q0 -11 -2 -35q-13 -99 -95 -141q-6 -3 -1 -6zM257 553l-15 -126q-2 -5 4 -5h96q40 0 63 17.5t28 49.5q4 33 -15 51
t-59 18h-96q-6 0 -6 -5zM382.5 165q24.5 22 24.5 61q0 29 -19 44.5t-55 15.5h-104q-5 0 -5 -5l-17 -133q0 -5 5 -5h103q43 0 67.5 22z" />
    <glyph glyph-name="C" unicode="C" horiz-adv-x="590" 
d="M107 50q-62 58 -62 156q0 24 2 37l27 216q9 74 48 130.5t102 87.5t140 31q108 0 170.5 -54.5t62.5 -147.5q0 -10 -2 -34q0 -4 -4 -7.5t-9 -3.5l-139 -9q-11 0 -10 11q1 6 1 17q0 40 -23.5 63t-63.5 23q-44 0 -75 -28.5t-37 -74.5l-28 -227q-1 -5 -1 -15q0 -40 24 -63.5
t64 -23.5q45 0 75.5 28t35.5 74q2 11 13 11l137 -7q11 0 11 -10q-9 -71 -48 -125t-101.5 -83.5t-140.5 -29.5q-107 0 -169 58z" />
    <glyph glyph-name="D" unicode="D" horiz-adv-x="599" 
d="M32 3.5q-3 3.5 -2 8.5l83 676q0 5 4 8.5t9 3.5h247q106 0 168.5 -51.5t62.5 -138.5q0 -9 -2 -29l-32 -262q-8 -65 -46 -115t-99.5 -77t-137.5 -27h-247q-5 0 -8 3.5zM211 142h100q39 0 67 28.5t35 76.5l25 206q1 7 1 19q0 40 -21 63t-57 23h-98q-6 0 -6 -5l-50 -406
q0 -5 4 -5z" />
    <glyph glyph-name="E" unicode="E" horiz-adv-x="559" 
d="M575.5 561.5q-3.5 -3.5 -8.5 -3.5h-304q-6 0 -6 -5l-15 -123q0 -5 4 -5h195q5 0 8 -3.5t2 -8.5l-14 -117q-1 -5 -4.5 -8.5t-8.5 -3.5h-195q-4 0 -6 -5l-16 -132q0 -5 4 -5h305q5 0 8 -3.5t2 -8.5l-14 -118q-1 -5 -4.5 -8.5t-8.5 -3.5h-459q-5 0 -8 3.5t-2 8.5l83 676
q0 5 4 8.5t9 3.5h459q5 0 8 -3.5t2 -8.5l-15 -118q-1 -5 -4.5 -8.5z" />
    <glyph glyph-name="F" unicode="F" horiz-adv-x="540" 
d="M574.5 561.5q-3.5 -3.5 -8.5 -3.5h-303q-6 0 -6 -5l-15 -123q0 -5 4 -5h195q5 0 8 -3.5t2 -8.5l-14 -117q-1 -5 -4.5 -8.5t-8.5 -3.5h-195q-4 0 -6 -5l-32 -267q-1 -5 -4.5 -8.5t-8.5 -3.5h-138q-5 0 -8 3.5t-2 8.5l83 676q0 5 4 8.5t9 3.5h458q5 0 8 -3.5t2 -8.5
l-15 -118q-1 -5 -4.5 -8.5z" />
    <glyph glyph-name="G" unicode="G" horiz-adv-x="593" 
d="M108 51q-62 59 -62 158q0 26 2 39l25 205q9 76 48.5 133.5t102.5 89.5t140 32q71 0 124 -26.5t81.5 -72.5t28.5 -103q0 -9 -2 -29l-1 -5q-1 -5 -4.5 -8.5t-8.5 -3.5h-138q-5 0 -8 3.5t-2 8.5q1 4 1 12q0 35 -23 58.5t-65 23.5q-44 0 -75 -30t-37 -78l-27 -215
q-1 -5 -1 -16q0 -41 26.5 -66.5t67.5 -25.5q43 0 72 23.5t34 65.5l3 28q2 5 -4 5h-97q-5 0 -8 3.5t-2 8.5l13 110q1 5 4.5 8.5t8.5 3.5h249q5 0 8 -3.5t2 -8.5l-17 -136q-9 -75 -48 -132t-102 -88t-141 -31q-106 0 -168 59z" />
    <glyph glyph-name="H" unicode="H" horiz-adv-x="601" 
d="M469.5 696.5q3.5 3.5 8.5 3.5h138q5 0 8 -3.5t2 -8.5l-83 -676q-1 -5 -4.5 -8.5t-8.5 -3.5h-138q-5 0 -8 3.5t-2 8.5l32 266q2 5 -4 5h-181q-4 0 -6 -5l-32 -266q-1 -5 -4.5 -8.5t-8.5 -3.5h-138q-5 0 -8 3.5t-2 8.5l83 676q0 5 4 8.5t9 3.5h137q11 0 11 -12l-32 -258
q0 -5 4 -5h182q2 0 3.5 1.5t1.5 3.5l32 258q1 5 4.5 8.5z" />
    <glyph glyph-name="I" unicode="I" horiz-adv-x="257" 
d="M32 3.5q-3 3.5 -2 8.5l83 676q0 5 4 8.5t9 3.5h137q11 0 11 -12l-83 -676q-1 -5 -4.5 -8.5t-8.5 -3.5h-138q-5 0 -8 3.5z" />
    <glyph glyph-name="J" unicode="J" horiz-adv-x="568" 
d="M81.5 46.5q-60.5 54.5 -60.5 145.5q0 10 2 34l7 59q1 5 4.5 8.5t8.5 3.5h138q5 0 8 -3.5t2 -8.5l-7 -58q-1 -5 -1 -16q0 -36 21 -56.5t60 -20.5q40 0 69.5 25.5t34.5 67.5l57 461q1 5 4.5 8.5t8.5 3.5h137q5 0 8 -3.5t2 -8.5l-57 -462q-8 -69 -46.5 -122t-100 -82.5
t-135.5 -29.5q-104 0 -164.5 54.5z" />
    <glyph glyph-name="K" unicode="K" horiz-adv-x="612" 
d="M32 3.5q-3 3.5 -2 8.5l83 676q0 5 4 8.5t9 3.5h137q11 0 11 -12l-32 -260q-1 -3 1 -3.5t4 1.5l229 267q6 7 14 7h158q8 0 8 -7q0 -3 -3 -8l-245 -289q-4 -4 -2 -7l173 -375q1 -2 1 -6q0 -8 -11 -8h-154q-10 0 -13 8l-120 267q-1 6 -7 0l-59 -71l-3 -6l-22 -186
q-1 -5 -4.5 -8.5t-8.5 -3.5h-138q-5 0 -8 3.5z" />
    <glyph glyph-name="L" unicode="L" horiz-adv-x="556" 
d="M32 3.5q-3 3.5 -2 8.5l83 676q0 5 4 8.5t9 3.5h137q11 0 11 -12l-67 -541q0 -5 4 -5h310q5 0 8 -3.5t2 -8.5l-14 -118q-1 -5 -5 -8.5t-9 -3.5h-463q-5 0 -8 3.5z" />
    <glyph glyph-name="M" unicode="M" horiz-adv-x="693" 
d="M563 700h137q5 0 8 -3.5t2 -8.5l-83 -676q-1 -5 -4.5 -8.5t-8.5 -3.5h-138q-5 0 -8 3.5t-2 8.5l49 402q1 4 -1 4t-4 -3l-101 -138q-4 -8 -14 -8h-69q-9 0 -13 8l-67 139q-1 3 -3 3t-3 -4l-49 -403q-1 -5 -4.5 -8.5t-8.5 -3.5h-138q-5 0 -8 3.5t-2 8.5l83 676q0 5 4 8.5
t9 3.5h136q10 0 13 -8l108 -218q3 -6 6 0l160 218q4 8 14 8z" />
    <glyph glyph-name="N" unicode="N" horiz-adv-x="642" 
d="M502.5 696.5q3.5 3.5 8.5 3.5h138q5 0 8 -3.5t2 -8.5l-83 -676q-1 -5 -4.5 -8.5t-8.5 -3.5h-132q-10 0 -13 8l-176 382q-2 3 -4 2.5t-2 -4.5l-45 -376q-1 -5 -4.5 -8.5t-8.5 -3.5h-138q-5 0 -8 3.5t-2 8.5l83 676q0 5 4 8.5t9 3.5h133q9 0 12 -8l176 -381q1 -3 3 -2.5
t3 4.5l45 375q1 5 4.5 8.5z" />
    <glyph glyph-name="O" unicode="O" horiz-adv-x="602" 
d="M109 49q-63 60 -63 162q0 25 2 39l25 200q9 76 49.5 134.5t104 91t141.5 32.5q72 0 125 -27t81.5 -76.5t28.5 -115.5q0 -26 -2 -39l-24 -200q-9 -78 -49.5 -137t-104.5 -91.5t-143 -32.5q-108 0 -171 60zM376.5 162.5q32.5 31.5 38.5 82.5l26 207q1 6 1 18q0 44 -24.5 70
t-66.5 26q-46 0 -78.5 -31.5t-38.5 -82.5l-25 -207q-1 -7 -1 -20q0 -44 24 -69t65 -25q47 0 79.5 31.5z" />
    <glyph glyph-name="P" unicode="P" horiz-adv-x="580" 
d="M547.5 649q53.5 -51 53.5 -138q0 -10 -2 -34q-8 -65 -43 -115t-90.5 -77t-124.5 -27h-118q-4 0 -6 -5l-29 -241q-1 -5 -4.5 -8.5t-8.5 -3.5h-138q-5 0 -8 3.5t-2 8.5l83 676q1 5 4.5 8.5t8.5 3.5h280q91 0 144.5 -51zM411 417q28 27 28 70q0 32 -21.5 51.5t-57.5 19.5
h-100q-4 0 -6 -5l-19 -158q-2 -5 4 -5h100q44 0 72 27z" />
    <glyph glyph-name="Q" unicode="Q" horiz-adv-x="582" 
d="M524.5 648.5q61.5 -59.5 61.5 -160.5q0 -19 -3 -40l-26 -209q-11 -88 -64.5 -150.5t-136.5 -85.5q-4 -1 -4 -5l-10 -78q-1 -5 -4.5 -8.5t-8.5 -3.5h-138q-5 0 -8 3.5t-2 8.5l10 78q0 4 -4 5q-68 20 -106.5 72t-38.5 127q0 24 2 37l26 209q9 77 48.5 136t101.5 91.5
t138 32.5q105 0 166.5 -59.5zM423 457q1 6 1 19q0 41 -22.5 65.5t-61.5 24.5q-42 0 -72 -30t-36 -79l-27 -214q-1 -6 -1 -18q0 -41 22.5 -66t60.5 -25q44 0 74 30t35 79z" />
    <glyph glyph-name="R" unicode="R" horiz-adv-x="596" 
d="M379 9l-81 266q-2 4 -6 4h-64q-5 0 -5 -5l-32 -262q-1 -5 -4.5 -8.5t-8.5 -3.5h-138q-5 0 -8 3.5t-2 8.5l83 676q0 5 4 8.5t9 3.5h288q88 0 139 -50t51 -135q0 -10 -2 -32q-9 -67 -47 -116t-98 -71q-5 -2 -3 -7l94 -275q1 -2 1 -5q0 -9 -12 -9h-145q-10 0 -13 9zM257 553
l-17 -142q-2 -5 4 -5h108q39 0 64.5 24t25.5 63q0 30 -19.5 47.5t-52.5 17.5h-107q-6 0 -6 -5z" />
    <glyph glyph-name="S" unicode="S" horiz-adv-x="581" 
d="M97.5 42.5q-64.5 50.5 -64.5 137.5q0 9 2 29l3 19q1 5 4.5 8.5t8.5 3.5h135q5 0 8 -3.5t2 -8.5l-2 -12q-4 -33 25.5 -57.5t83.5 -24.5q46 0 68.5 21.5t22.5 47.5q0 24 -21 37.5t-76 33.5l-23 8q-56 20 -97 42t-70.5 60t-29.5 93q0 8 2 26q8 62 45.5 108.5t96.5 71.5
t130 25q69 0 122.5 -24t83.5 -68.5t30 -102.5q0 -9 -2 -29l-2 -14q0 -5 -4 -8.5t-9 -3.5h-134q-5 0 -8.5 3.5t-2.5 8.5l1 7q4 35 -22.5 62t-76.5 27q-41 0 -65 -18.5t-24 -51.5q0 -18 13 -31t39 -24.5t80 -31.5q61 -22 94.5 -38t63 -51.5t29.5 -91.5q0 -8 -2 -26
q-12 -97 -88.5 -153.5t-192.5 -56.5q-112 0 -176.5 50.5z" />
    <glyph glyph-name="T" unicode="T" horiz-adv-x="572" 
d="M613 696.5q3 -3.5 2 -8.5l-15 -119q0 -5 -4 -8.5t-9 -3.5h-169q-6 0 -6 -5l-66 -540q-1 -5 -4.5 -8.5t-8.5 -3.5h-138q-5 0 -8 3.5t-2 8.5l66 540q0 5 -4 5h-164q-5 0 -8 3.5t-2 8.5l14 119q1 5 4.5 8.5t8.5 3.5h505q5 0 8 -3.5z" />
    <glyph glyph-name="U" unicode="U" horiz-adv-x="604" 
d="M113.5 49q-62.5 57 -62.5 153q0 12 2 36l56 450q1 5 4.5 8.5t8.5 3.5h138q5 0 8 -3.5t2 -8.5l-56 -450q-1 -5 -1 -16q0 -40 23.5 -64t63.5 -24q43 0 73.5 28.5t35.5 75.5l56 450q1 5 4.5 8.5t8.5 3.5h138q5 0 8 -3.5t2 -8.5l-56 -450q-9 -73 -48 -129t-101 -86.5
t-139 -30.5q-106 0 -168.5 57z" />
    <glyph glyph-name="V" unicode="V" horiz-adv-x="615" 
d="M202 10l-113 676v2q0 5 3 8.5t8 3.5h149q11 0 12 -10l56 -455q0 -3 2.5 -3t3.5 3l165 455q4 10 15 10h146q5 0 7.5 -4t0.5 -10l-282 -676q-5 -10 -14 -10h-148q-9 0 -11 10z" />
    <glyph glyph-name="W" unicode="W" horiz-adv-x="875" 
d="M185 10l-98 677v2q0 11 12 11h147q10 0 11 -10l40 -364q0 -4 2.5 -4t3.5 4l120 363q3 11 14 11h135q10 0 11 -10l40 -364q0 -4 2.5 -4t3.5 4l123 363q3 11 14 11h143q14 0 10 -13l-248 -677q-3 -10 -14 -10h-139q-11 0 -11 11l-37 386q-1 4 -3 4t-3 -4l-123 -386
q-3 -11 -14 -11h-130q-10 0 -12 10z" />
    <glyph glyph-name="X" unicode="X" horiz-adv-x="626" 
d="M8.5 4q-2.5 4 1.5 10l225 333q2 3 0 6l-142 333q-1 2 -1 5q0 9 11 9h150q10 0 13 -8l84 -210q3 -4 6 0l136 210q5 8 16 8h149q9 0 9 -6q0 -3 -3 -8l-223 -333q-1 -2 -1 -6l142 -333q1 -2 1 -5q0 -4 -3 -6.5t-8 -2.5h-148q-9 0 -14 8l-86 209q-2 5 -5 0l-137 -209
q-5 -8 -15 -8h-149q-6 0 -8.5 4z" />
    <glyph glyph-name="Y" unicode="Y" horiz-adv-x="616" 
d="M211 5.5q-3 3.5 -2 8.5l29 237q2 3 0 6l-146 429q-1 2 -1 5q0 9 11 9h150q9 0 12 -9l75 -253q2 -6 6 0l138 253q4 9 14 9h151q6 0 8.5 -3.5t-1.5 -10.5l-255 -429l-2 -6l-29 -237q-1 -5 -4.5 -8.5t-8.5 -3.5h-137q-5 0 -8 3.5z" />
    <glyph glyph-name="Z" unicode="Z" horiz-adv-x="543" 
d="M11 3.5q-3 3.5 -2 8.5l16 130q2 10 7 15l345 395q2 2 1.5 4t-3.5 2h-287q-5 0 -8 3.5t-2 8.5l14 118q1 5 4.5 8.5t8.5 3.5h462q5 0 8 -3.5t2 -8.5l-16 -130q0 -7 -6 -15l-348 -395q-1 -2 -0.5 -4t2.5 -2h290q5 0 8 -3.5t2 -8.5l-15 -118q-1 -5 -4.5 -8.5t-8.5 -3.5h-462
q-5 0 -8 3.5z" />
    <glyph glyph-name="bracketleft" unicode="[" horiz-adv-x="417" 
d="M-1 -152.5q-3 3.5 -2 8.5l116 942q0 5 4 8.5t9 3.5h248q5 0 8 -3.5t2 -8.5l-14 -119q-1 -5 -5 -8.5t-9 -3.5h-94q-5 0 -5 -5l-82 -670q-2 -5 4 -5h94q5 0 8 -3.5t2 -8.5l-15 -119q0 -5 -4 -8.5t-9 -3.5h-248q-5 0 -8 3.5z" />
    <glyph glyph-name="backslash" unicode="\" horiz-adv-x="483" 
d="M446 10q0 -10 -11 -10h-137q-10 0 -13 9l-177 677l-1 5q0 9 11 9h136q11 0 12 -9l179 -677z" />
    <glyph glyph-name="bracketright" unicode="]" horiz-adv-x="417" 
d="M340.5 -152.5q-3.5 -3.5 -8.5 -3.5h-247q-11 0 -11 12l15 119q1 5 4.5 8.5t8.5 3.5h93q4 0 6 5l82 670q0 5 -4 5h-93q-5 0 -8 3.5t-2 8.5l14 119q1 5 4.5 8.5t8.5 3.5h248q5 0 8 -3.5t2 -8.5l-116 -942q-1 -5 -4.5 -8.5z" />
    <glyph glyph-name="asciicircum" unicode="^" horiz-adv-x="466" 
d="M47 298q-2 4 1 10l179 382q5 10 14 10h115q10 0 11 -10l89 -382v-4q0 -10 -12 -10h-112q-9 0 -11 10l-40 222q0 4 -2 4t-4 -4l-93 -222q-5 -10 -14 -10h-113q-6 0 -8 4z" />
    <glyph glyph-name="underscore" unicode="_" horiz-adv-x="521" 
d="M-1 3.5q-3 3.5 -2 8.5l12 100q1 5 4.5 8.5t8.5 3.5h469q5 0 8 -3.5t2 -8.5l-13 -100q0 -5 -4 -8.5t-9 -3.5h-468q-5 0 -8 3.5z" />
    <glyph glyph-name="grave" unicode="`" horiz-adv-x="239" 
d="M271 587q0 -4 -3 -6.5t-8 -2.5h-99q-9 0 -12 7l-59 100q-2 4 -2 7t3 5.5t8 2.5h119q9 0 14 -9l38 -99q1 -2 1 -5z" />
    <glyph glyph-name="a" unicode="a" horiz-adv-x="553" 
d="M398.5 513.5q3.5 3.5 8.5 3.5h138q5 0 8 -3.5t2 -8.5l-61 -493q-1 -5 -4.5 -8.5t-8.5 -3.5h-138q-5 0 -8 3.5t-2 8.5l5 38q0 3 -1.5 4t-4.5 -2q-47 -60 -123 -60q-65 0 -110.5 41.5t-57.5 112.5q-4 21 -4 48q0 28 5 66q8 74 35 128q28 60 82 98.5t122 38.5q74 0 103 -51
q2 -3 4 -2t2 4l4 29q1 5 4.5 8.5zM363 258q3 24 3 41q0 23 -6 41q-6 20 -20.5 31.5t-36.5 11.5q-23 0 -41 -12t-29 -33q-16 -27 -23 -80q-2 -14 -2 -38q0 -26 5 -41q6 -20 21.5 -32.5t38.5 -12.5q44 0 68 46q17 28 22 78z" />
    <glyph glyph-name="b" unicode="b" horiz-adv-x="556" 
d="M543 313q0 -16 -4 -52q-8 -64 -29 -116q-31 -71 -86.5 -112t-121.5 -41q-75 0 -106 56q-1 3 -3.5 2t-2.5 -4l-4 -34q-1 -5 -4.5 -8.5t-8.5 -3.5h-138q-5 0 -8 3.5t-2 8.5l83 676q1 5 4.5 8.5t8.5 3.5h138q5 0 8 -3.5t2 -8.5l-26 -209q0 -6 6 -2q42 48 112 48t114.5 -38
t58.5 -100q9 -36 9 -74zM371 258q2 11 2 33q0 35 -10 56q-16 36 -55 36q-37 0 -62 -35q-23 -34 -29 -90q-2 -22 -2 -32q0 -31 8 -53q16 -39 54 -39q41 0 66 38q22 32 28 86z" />
    <glyph glyph-name="c" unicode="c" horiz-adv-x="527" 
d="M117.5 33q-54.5 41 -71.5 113q-7 28 -7 64q0 26 3 51q8 68 32 115q34 70 98.5 109.5t144.5 39.5t136.5 -41t69.5 -104q4 -16 4 -39q-2 -12 -12 -13l-138 -21h-2q-9 0 -10 10q0 6 -1 9q0 7 -3 14q-5 19 -22 31t-41 12q-51 0 -73 -47q-14 -28 -20 -76q-3 -21 -3 -39
q0 -21 3 -36q13 -51 63 -51q25 0 45 13.5t31 38.5l2 6l1 4q4 12 15 10l133 -22q11 -2 8 -13q-4 -18 -10 -31q-31 -70 -96.5 -109t-145.5 -39q-79 0 -133.5 41z" />
    <glyph glyph-name="d" unicode="d" horiz-adv-x="556" 
d="M420.5 696.5q3.5 3.5 8.5 3.5h138q5 0 8 -3.5t2 -8.5l-83 -676q-1 -5 -4.5 -8.5t-8.5 -3.5h-138q-5 0 -8 3.5t-2 8.5l4 33q1 3 -1 3.5t-4 -1.5q-47 -55 -119 -55q-66 0 -111.5 41t-58.5 112q-5 32 -5 60q0 18 4 56q8 70 36 126q29 62 83 100t124 38q69 0 100 -47
q1 -3 3 -2t3 4l25 208q1 5 4.5 8.5zM363 258q3 20 3 36q0 34 -10 54q-16 35 -53 35q-40 0 -63 -36q-23 -32 -31 -89q-2 -22 -2 -32q0 -31 9 -54q17 -38 57 -38q39 0 63 39q21 31 27 85z" />
    <glyph glyph-name="e" unicode="e" 
d="M517 225q-3 -12 -15 -12h-295q-6 0 -6 -5q1 -15 6 -29q9 -21 31 -34t56 -13q60 0 101 41q4 5 9 5q4 0 7 -4l64 -88q3 -3 3 -7t-5 -9q-38 -38 -90.5 -58t-111.5 -20q-88 0 -145 39.5t-76 110.5q-9 33 -9 71q0 21 3 45q6 55 29 109q34 74 97.5 116.5t142.5 42.5
q64 0 111 -28.5t72.5 -79t26.5 -114.5q1 -30 -6 -79zM222 334q-3 -7 -7 -21q-2 -5 3 -5h138q5 0 5 5q0 7 -2 19q-4 25 -20.5 38t-43.5 13q-49 0 -73 -49z" />
    <glyph glyph-name="f" unicode="f" horiz-adv-x="386" 
d="M405 506l-14 -112q-1 -5 -4.5 -8.5t-8.5 -3.5h-92q-2 0 -3.5 -1.5t-1.5 -3.5l-45 -365q-1 -5 -4.5 -8.5t-8.5 -3.5h-138q-5 0 -8 3.5t-2 8.5l45 365q0 5 -4 5h-55q-5 0 -8 3.5t-2 8.5l14 112q1 5 4.5 8.5t8.5 3.5h54q6 0 6 5l3 27q7 59 31.5 92.5t71 47t122.5 10.5h40
q5 0 8 -3.5t2 -8.5l-11 -91q-1 -5 -4.5 -8.5t-8.5 -3.5h-38q-26 -2 -38 -13t-16 -37l-1 -12q0 -5 4 -5h91q11 0 11 -12z" />
    <glyph glyph-name="g" unicode="g" horiz-adv-x="546" 
d="M392.5 513.5q3.5 3.5 8.5 3.5h138q5 0 8 -3.5t2 -8.5l-55 -447q-17 -137 -100.5 -196t-201.5 -59q-45 0 -91 8q-9 1 -8 13l20 124q1 13 15 10q38 -9 73 -9q55 0 90 26t42 82l-8 -7q-39 -36 -105 -36q-64 0 -114 29t-64 102q-5 23 -5 56q0 24 4 62q9 74 34 126
q30 62 83.5 99t118.5 37q71 0 102 -44q2 -2 4 -1.5t2 3.5l3 22q1 5 4.5 8.5zM358 264q4 34 4 40q0 15 -5 32q-5 22 -20 34.5t-40 12.5q-45 0 -70 -47q-19 -28 -24 -74q-2 -12 -2 -33q0 -24 6 -39q5 -21 21 -34t41 -13q49 0 71 46q12 24 18 75z" />
    <glyph glyph-name="h" unicode="h" 
d="M478.5 484q41.5 -41 41.5 -113q0 -8 -2 -30l-40 -329q-1 -5 -4.5 -8.5t-8.5 -3.5h-138q-5 0 -8 3.5t-2 8.5l36 293l1 12q0 30 -16 48t-42 18q-29 0 -50.5 -21.5t-25.5 -56.5l-36 -293q-1 -5 -4.5 -8.5t-8.5 -3.5h-138q-5 0 -8 3.5t-2 8.5l83 676q1 5 4.5 8.5t8.5 3.5h138
q5 0 8 -3.5t2 -8.5l-27 -220q-1 -4 1 -4.5t4 2.5q44 59 123 59q69 0 110.5 -41z" />
    <glyph glyph-name="i" unicode="i" horiz-adv-x="247" 
d="M119.5 584q-20.5 21 -20.5 54q0 43 28 71t68 28q34 0 54.5 -20t20.5 -54q0 -42 -28.5 -71t-67.5 -29q-34 0 -54.5 21zM27 3.5q-3 3.5 -2 8.5l60 493q1 5 4.5 8.5t8.5 3.5h138q5 0 8 -3.5t2 -8.5l-60 -493q-1 -5 -4.5 -8.5t-8.5 -3.5h-138q-5 0 -8 3.5z" />
    <glyph glyph-name="j" unicode="j" horiz-adv-x="250" 
d="M122.5 584q-20.5 21 -20.5 54q0 43 28 71t68 28q34 0 54.5 -20t20.5 -54q0 -42 -28.5 -71t-67.5 -29q-34 0 -54.5 21zM-107 -198.5q-3 3.5 -2 8.5l14 115q1 6 5 9t9 2q59 -3 82.5 13.5t29.5 63.5l58 492q1 5 4.5 8.5t8.5 3.5h138q5 0 8 -3.5t2 -8.5l-60 -490
q-11 -89 -39 -136t-86 -65.5t-164 -15.5q-5 0 -8 3.5z" />
    <glyph glyph-name="k" unicode="k" horiz-adv-x="528" 
d="M25 3.5q-3 3.5 -2 8.5l83 676q1 5 4.5 8.5t8.5 3.5h138q5 0 8 -3.5t2 -8.5l-38 -311q-1 -3 1 -3.5t4 1.5l123 135q6 7 15 7h158q9 0 9 -6q0 -5 -4 -9l-148 -169q-1 -2 -1 -7l107 -312l1 -4q0 -10 -12 -10h-143q-10 0 -13 9l-62 213q-1 2 -3 2.5t-4 -1.5l-54 -67
q-2 -4 -2 -6l-17 -138q-1 -5 -4.5 -8.5t-8.5 -3.5h-138q-5 0 -8 3.5z" />
    <glyph glyph-name="l" unicode="l" horiz-adv-x="242" 
d="M25 3.5q-3 3.5 -2 8.5l83 676q1 5 4.5 8.5t8.5 3.5h138q5 0 8 -3.5t2 -8.5l-83 -676q-1 -5 -4.5 -8.5t-8.5 -3.5h-138q-5 0 -8 3.5z" />
    <glyph glyph-name="m" unicode="m" horiz-adv-x="815" 
d="M766.5 486.5q36.5 -38.5 36.5 -108.5q0 -24 -2 -36l-41 -330q-1 -5 -4.5 -8.5t-8.5 -3.5h-137q-5 0 -8 3.5t-2 8.5l36 294q1 5 1 15q0 28 -14.5 45t-39.5 17q-28 0 -48.5 -21t-24.5 -56l-36 -294q-1 -5 -4.5 -8.5t-8.5 -3.5h-138q-5 0 -8 3.5t-2 8.5l36 294q1 5 1 14
q0 29 -15.5 46t-40.5 17q-26 0 -45.5 -17t-26.5 -45l-38 -309q-1 -5 -4.5 -8.5t-8.5 -3.5h-138q-5 0 -8 3.5t-2 8.5l60 493q1 5 4.5 8.5t8.5 3.5h138q5 0 8 -3.5t2 -8.5l-5 -45q-1 -4 1 -4.5t4 3.5q48 66 133 66q49 0 82.5 -22t48.5 -64q2 -6 6 1q50 85 148 85
q68 0 104.5 -38.5z" />
    <glyph glyph-name="n" unicode="n" 
d="M478.5 484q41.5 -41 41.5 -113q0 -8 -2 -30l-40 -329q-1 -5 -4.5 -8.5t-8.5 -3.5h-138q-5 0 -8 3.5t-2 8.5l36 293l1 12q0 30 -16 48t-42 18q-29 0 -50.5 -21.5t-25.5 -56.5l-36 -293q-1 -5 -4.5 -8.5t-8.5 -3.5h-138q-5 0 -8 3.5t-2 8.5l60 493q1 5 4.5 8.5t8.5 3.5h138
q5 0 8 -3.5t2 -8.5l-4 -37q-1 -4 1 -4.5t4 2.5q44 59 123 59q69 0 110.5 -41z" />
    <glyph glyph-name="o" unicode="o" horiz-adv-x="541" 
d="M108 40q-55 48 -66 130q-3 21 -3 43q0 23 3 47q6 54 24 97q33 79 99 123.5t152 44.5q85 0 139 -44.5t67 -122.5q4 -23 4 -54q0 -28 -2 -42q-6 -49 -22 -88q-30 -84 -97 -133t-156 -49q-87 0 -142 48zM317 152.5q21 18.5 33 50.5q8 22 13 57q2 22 2 31q0 43 -16.5 67.5
t-50.5 24.5q-56 0 -81 -65q-10 -27 -13 -58q-3 -19 -3 -37q0 -40 17 -64.5t50 -24.5q28 0 49 18.5z" />
    <glyph glyph-name="p" unicode="p" horiz-adv-x="557" 
d="M544 313q0 -18 -4 -56q-10 -72 -36 -126q-30 -63 -83.5 -101t-123.5 -38q-69 0 -100 47q-2 3 -4 2t-2 -4l-26 -208q-1 -5 -4.5 -8.5t-8.5 -3.5h-138q-5 0 -8 3.5t-2 8.5l83 676q1 5 4.5 8.5t8.5 3.5h138q5 0 8 -3.5t2 -8.5l-4 -33q0 -6 6 -2q45 55 118 55
q66 0 111.5 -40.5t59.5 -111.5q5 -32 5 -60zM372 260q2 11 2 32q0 32 -9 53q-14 38 -56 38q-39 0 -64 -38q-21 -36 -27 -86q-2 -12 -2 -34q0 -32 9 -56q16 -35 53 -35q41 0 64 36q24 35 30 90z" />
    <glyph glyph-name="q" unicode="q" horiz-adv-x="557" 
d="M398.5 513.5q3.5 3.5 8.5 3.5h138q5 0 8 -3.5t2 -8.5l-83 -676q-1 -5 -4.5 -8.5t-8.5 -3.5h-138q-5 0 -8 3.5t-2 8.5l25 208q1 3 -1 4t-4 -2q-42 -47 -112 -47t-114 38t-59 101q-8 31 -8 72q0 27 3 54q8 61 30 116q31 71 86.5 111.5t121.5 40.5q73 0 105 -55
q2 -2 3.5 -1.5t2.5 3.5l4 33q1 5 4.5 8.5zM364 259q2 24 2 33q0 29 -8 53q-16 38 -55 38q-41 0 -66 -38q-20 -30 -28 -85q-2 -22 -2 -30q0 -35 11 -60q16 -36 55 -36q37 0 61 35q23 34 30 90z" />
    <glyph glyph-name="r" unicode="r" horiz-adv-x="378" 
d="M405 511q7 -6 4 -15l-39 -139q-3 -12 -15 -7q-16 4 -33 4q-16 0 -25 -2q-30 -4 -53.5 -24t-27.5 -53l-32 -263q-1 -5 -4.5 -8.5t-8.5 -3.5h-138q-5 0 -8 3.5t-2 8.5l60 493q1 5 4.5 8.5t8.5 3.5h138q5 0 8 -3.5t2 -8.5l-4 -32q0 -3 2 -4t3 2q45 53 107 53q34 0 53 -13z
" />
    <glyph glyph-name="s" unicode="s" horiz-adv-x="495" 
d="M81 30q-56 38 -56 101q0 11 1 17l1 11q1 5 4.5 8.5t8.5 3.5h131q11 0 11 -12q-3 -19 16 -31.5t50 -12.5q29 0 46 10.5t17 27.5q0 14 -16 21t-52 14q-59 13 -94 29q-42 19 -67 46.5t-25 72.5q0 13 1 20q10 78 74 123.5t160 45.5q91 0 144.5 -41.5t53.5 -110.5
q0 -13 -1 -20q-1 -5 -5 -8.5t-9 -3.5h-127q-5 0 -8 3.5t-2 8.5q2 19 -13.5 31t-45.5 12q-29 0 -47.5 -10.5t-18.5 -28.5q0 -16 18 -23.5t58 -14.5q53 -11 76 -19q52 -18 81 -47.5t29 -77.5q0 -13 -1 -20q-10 -78 -74.5 -120.5t-165.5 -42.5q-97 0 -153 38z" />
    <glyph glyph-name="t" unicode="t" horiz-adv-x="374" 
d="M375 387.5q-4 -3.5 -9 -3.5h-88q-5 0 -5 -5l-23 -182q-1 -5 -1 -14q0 -43 39 -43h36q5 0 8 -3.5t2 -8.5l-14 -116q-2 -11 -13 -13q-48 -2 -69 -2q-77 0 -114.5 22t-37.5 82q0 8 2 28l30 250q2 5 -4 5h-55q-5 0 -8 3.5t-2 8.5l13 109q1 5 4.5 8.5t8.5 3.5h55q6 0 6 5
l15 121q1 5 4.5 8.5t8.5 3.5h131q5 0 8 -3.5t2 -8.5l-15 -121q0 -5 4 -5h89q5 0 8 -3.5t2 -8.5l-14 -109q0 -5 -4 -8.5z" />
    <glyph glyph-name="u" unicode="u" horiz-adv-x="532" 
d="M377.5 513.5q3.5 3.5 8.5 3.5h138q5 0 8 -3.5t2 -8.5l-60 -493q-1 -5 -4.5 -8.5t-8.5 -3.5h-138q-5 0 -8 3.5t-2 8.5l4 35q1 3 -1 4t-4 -2q-46 -57 -130 -57q-66 0 -105 38.5t-39 109.5q0 22 2 34l40 331q1 5 5 8.5t9 3.5h137q5 0 8 -3.5t2 -8.5l-36 -293l-1 -13
q0 -30 15 -47t42 -17t47 17t28 45l37 308q1 5 4.5 8.5z" />
    <glyph glyph-name="v" unicode="v" horiz-adv-x="520" 
d="M153 10l-92 494v3q0 5 3 8t8 3h152q11 0 12 -10l30 -275q1 -3 3 -3t3 3l99 275q4 10 15 10l150 -2q6 0 8.5 -3.5t-0.5 -10.5l-212 -492q-5 -10 -14 -10h-154q-9 0 -11 10z" />
    <glyph glyph-name="w" unicode="w" horiz-adv-x="781" 
d="M141 10l-80 494v2q0 5 3 8.5t8 3.5h143q11 0 11 -11l25 -271q0 -4 2.5 -4t3.5 4l96 272q4 10 14 10h124q12 0 13 -10l32 -273q1 -3 3 -3t3 3l98 273q4 10 15 10l142 -2q5 0 7.5 -3.5t0.5 -9.5l-203 -493q-5 -10 -14 -10h-143q-10 0 -12 10l-36 233q0 3 -2 3t-3 -3
l-83 -233q-4 -10 -14 -10h-143q-9 0 -11 10z" />
    <glyph glyph-name="x" unicode="x" horiz-adv-x="542" 
d="M0 7q0 4 3 8l185 241q2 3 0 6l-125 240q-2 4 -2 6q0 4 3 6.5t7 2.5h149q9 0 12 -8l59 -119q2 -3 4 -3t3 3l88 119q6 8 15 8h158q8 0 8 -7q0 -3 -3 -8l-185 -240q-1 -3 0 -6l125 -241q2 -4 2 -6q0 -4 -3 -6.5t-7 -2.5h-149q-9 0 -12 8l-59 119q-1 3 -3 3t-4 -3l-89 -119
q-5 -8 -14 -8h-158q-8 0 -8 7z" />
    <glyph glyph-name="y" unicode="y" horiz-adv-x="504" 
d="M-4 -187l14 112q1 5 4.5 8.5t7.5 3.5q62 0 90.5 11.5t39.5 48.5q1 2 1 6l-95 501v3q0 5 3 8t8 3h147q10 0 11 -10l31 -296q0 -4 2.5 -4t3.5 4l103 296q4 10 14 10h143q6 0 8.5 -3.5t-0.5 -10.5l-227 -514q-34 -75 -65 -113.5t-84 -57t-147 -18.5h-7q-6 0 -6 12z" />
    <glyph glyph-name="z" unicode="z" horiz-adv-x="451" 
d="M2 12l16 129q2 10 8 15l224 205q2 2 1.5 4t-3.5 2h-185q-5 0 -8 3.5t-2 8.5l16 126q1 5 4.5 8.5t8.5 3.5h372q11 0 11 -12l-16 -129q-2 -10 -8 -15l-232 -205q-2 -2 -1 -4t3 -2h204q5 0 8 -3.5t2 -8.5l-15 -126q-1 -5 -4.5 -8.5t-8.5 -3.5h-384q-11 0 -11 12z" />
    <glyph glyph-name="braceleft" unicode="{" horiz-adv-x="390" 
d="M116 -129q-31 27 -31 77q0 15 1 23l25 203q2 16 2 23q0 62 -55 66q-10 1 -10 13l13 106q2 11 13 13q33 3 51.5 24.5t23.5 63.5l24 200q8 62 46.5 94.5t105.5 32.5h99q11 0 11 -12l-15 -119q-1 -5 -4.5 -8.5t-8.5 -3.5h-23q-23 0 -39.5 -16.5t-19.5 -42.5l-18 -149
q-7 -51 -25 -81.5t-51 -45.5q-6 -3 -1 -6q47 -23 47 -93q0 -10 -2 -34l-19 -153q-1 -4 -1 -11q0 -22 12.5 -35t32.5 -13h23q11 0 11 -12l-15 -119q-1 -5 -4.5 -8.5t-8.5 -3.5h-99q-60 0 -91 27z" />
    <glyph glyph-name="bar" unicode="|" horiz-adv-x="210" 
d="M-1 -76.5q-3 3.5 -2 8.5l100 816q1 5 4.5 8.5t8.5 3.5h138q5 0 8 -3.5t2 -8.5l-100 -816q-1 -5 -5 -8.5t-9 -3.5h-137q-5 0 -8 3.5z" />
    <glyph glyph-name="braceright" unicode="}" horiz-adv-x="390" 
d="M7 -156q-5 0 -8 3.5t-2 8.5l14 119q1 5 5 8.5t9 3.5h23q23 0 39 16t20 43l18 153q6 50 24.5 81t51.5 46q6 3 1 6q-47 24 -47 93q0 10 2 34l19 149q3 26 -9.5 42.5t-35.5 16.5h-23q-5 0 -8 3.5t-2 8.5l15 119q0 5 4 8.5t9 3.5h99q60 0 91 -27t31 -77q0 -15 -1 -23
l-25 -200q-2 -16 -2 -23q0 -60 54 -65q12 -1 10 -13l-13 -106q0 -11 -13 -13q-32 -3 -50.5 -24.5t-23.5 -64.5l-25 -203q-8 -62 -46.5 -94.5t-105.5 -32.5h-99z" />
    <glyph glyph-name="asciitilde" unicode="~" horiz-adv-x="530" 
d="M311.5 196.5q-17.5 6.5 -35.5 18.5q-23 14 -41 22.5t-38 8.5q-35 0 -63 -35q-9 -9 -17 -3l-71 55q-8 8 -4 16q22 48 69.5 79t97.5 31q24 0 41 -6.5t37 -18.5q7 -4 21.5 -13.5t26.5 -14t24 -4.5q17 0 31 9t28 26q7 10 16 4l82 -59q7 -6 3 -16q-24 -47 -70.5 -76.5
t-95.5 -29.5q-24 0 -41.5 6.5z" />
    <glyph glyph-name="uni00A0" unicode="&#xa0;" horiz-adv-x="194" 
 />
    <glyph glyph-name="exclamdown" unicode="&#xa1;" horiz-adv-x="342" 
d="M286.5 687q20.5 -21 20.5 -54q0 -43 -27.5 -71t-68.5 -28q-34 0 -54.5 20.5t-20.5 54.5q0 42 28 70.5t68 28.5q34 0 54.5 -21zM148.5 460.5q3.5 3.5 8.5 3.5h105q5 0 8 -3.5t2 -8.5l-37 -431q-1 -12 -13 -12h-137q-12 0 -11 12l70 431q1 5 4.5 8.5z" />
    <glyph glyph-name="cent" unicode="&#xa2;" horiz-adv-x="527" 
d="M236 426q-14 -28 -20 -76q-3 -21 -3 -39q0 -21 3 -36q13 -51 63 -51q25 0 45 13.5t31 38.5l2 6q1 1 1 4q4 12 15 10l133 -22q11 -2 8 -13q-4 -16 -9 -31q-24 -54 -69.5 -89.5t-103.5 -50.5q-4 -1 -4 -6l-8 -79q-1 -5 -4.5 -8.5t-8.5 -3.5h-118q-5 0 -8 3.5t-2 8.5l12 83
q1 4 -3 5q-51 16 -84.5 52.5t-46.5 90.5q-7 28 -7 64q0 26 3 51q8 68 32 115q24 51 66 86t96 52q4 1 4 5l8 80q1 5 4.5 8.5t8.5 3.5h119q5 0 8 -3.5t2 -8.5l-11 -76q-1 -4 3 -6q56 -15 93 -51.5t48 -85.5q4 -16 4 -39q-2 -12 -12 -13l-138 -21h-2q-9 0 -10 10q0 6 -1 9
q0 3 -2 13q-5 19 -22 31.5t-42 12.5q-51 0 -73 -47z" />
    <glyph glyph-name="sterling" unicode="&#xa3;" horiz-adv-x="597" 
d="M282 185.5q-11 -19.5 -29 -37.5q-2 -2 -1.5 -4t3.5 -2h301q5 0 8 -3.5t2 -8.5l-15 -118q0 -5 -4 -8.5t-9 -3.5h-466q-5 0 -8 3.5t-2 8.5l14 121q1 8 10 14q24 17 35 37t14 50l5 41q2 5 -4 5h-62q-5 0 -8 3.5t-2 8.5l13 109q1 5 4.5 8.5t8.5 3.5h63q2 0 3.5 1.5t1.5 3.5
l8 64q13 108 82 167t174 59q83 0 132 -44.5t64 -122.5l1 -4q0 -8 -11 -10l-131 -23h-2q-8 0 -11 9q-7 30 -21.5 41.5t-38.5 11.5q-66 -2 -77 -81l-8 -67q0 -5 4 -5h175q5 0 8 -3.5t2 -8.5l-13 -109q-1 -5 -4.5 -8.5t-8.5 -3.5h-175q-4 0 -6 -5l-5 -41q-3 -29 -14 -48.5z" />
    <glyph glyph-name="currency" unicode="&#xa4;" horiz-adv-x="576" 
d="M490 205q-3 -4 0 -7l57 -67q3 -3 3 -7q0 -5 -5 -10l-95 -77q-4 -4 -9 -4t-8 4l-52 61q-2 3 -7 1q-49 -22 -99 -22q-49 0 -89 20q-4 2 -7 -1l-66 -59q-4 -4 -8 -4q-5 0 -8 4l-76 77q-3 5 -3 8q0 4 5 9l68 62q3 3 1 7q-14 36 -14 75q0 68 37 129q2 5 -1 7l-55 66q-4 4 -4 7
q0 6 6 10l95 77q4 4 9 4t8 -4l51 -61q1 -3 6 -1q49 23 101 23q53 0 97 -25q5 -1 7 1l70 63q4 4 8 4q5 0 8 -4l76 -77q3 -3 3 -7q0 -5 -5 -10l-77 -70q-3 -2 -3 -7q11 -33 11 -66q0 -70 -36 -129zM239 239q22 -22 53 -22q35 0 63 25.5t32 61.5l1 11q0 33 -21 55t-53 22
q-38 0 -67.5 -29.5t-29.5 -69.5q0 -32 22 -54z" />
    <glyph glyph-name="yen" unicode="&#xa5;" horiz-adv-x="664" 
d="M683.5 696.5q2.5 -3.5 -1.5 -10.5l-205 -347q-3 -6 3 -6h79q5 0 8 -3.5t2 -8.5l-8 -67q-1 -5 -4.5 -8.5t-8.5 -3.5h-118q-5 0 -5 -5l-5 -39q0 -5 4 -5h118q5 0 8 -3.5t2 -8.5l-8 -66q-1 -5 -4.5 -8.5t-8.5 -3.5h-118q-5 0 -5 -5l-11 -84q0 -5 -4 -8.5t-9 -3.5h-136
q-11 0 -11 12l11 84q0 5 -4 5h-118q-5 0 -8 3.5t-2 8.5l8 66q1 5 4.5 8.5t8.5 3.5h118q2 0 3.5 1.5t1.5 3.5l5 39q0 5 -4 5h-118q-5 0 -8 3.5t-2 8.5l8 67q1 5 4.5 8.5t8.5 3.5h79q5 0 5 6l-119 347q-1 2 -1 5q0 9 12 9h149q9 0 12 -9l76 -253q2 -3 3 -3t3 3l138 253
q4 9 14 9h150q6 0 8.5 -3.5z" />
    <glyph glyph-name="brokenbar" unicode="&#xa6;" horiz-adv-x="210" 
d="M58 407.5q-3 3.5 -2 8.5l41 332q1 5 4.5 8.5t8.5 3.5h138q5 0 8 -3.5t2 -8.5l-41 -332q-1 -5 -4.5 -8.5t-8.5 -3.5h-138q-5 0 -8 3.5zM-1 -76.5q-3 3.5 -2 8.5l40 332q1 5 4.5 8.5t8.5 3.5h138q5 0 8 -3.5t2 -8.5l-40 -332q-1 -5 -5 -8.5t-9 -3.5h-137q-5 0 -8 3.5z" />
    <glyph glyph-name="section" unicode="&#xa7;" horiz-adv-x="494" 
d="M58 -166.5q-48 41.5 -48 112.5l1 17l3 42q1 5 4.5 8.5t8.5 3.5h138q5 0 8 -3.5t2 -8.5l-2 -15q-3 -26 10 -41t38 -15q23 0 40 15.5t17 37.5q0 20 -18.5 33t-69.5 35l-20 9q-47 20 -74 38.5t-42 46.5q-16 30 -16 69q0 66 42 121q26 30 62 46q6 3 2 6q-68 41 -68 117
q0 53 31.5 99t86.5 73.5t121 27.5q84 0 136 -43.5t52 -114.5q0 -14 -1 -22l-3 -27q-1 -5 -4.5 -8.5t-8.5 -3.5h-138q-5 0 -8 3.5t-2 8.5l1 9q3 25 -9.5 40.5t-35.5 15.5t-40.5 -15.5t-17.5 -39.5q0 -27 22 -41t70 -31q41 -14 69.5 -29t47.5 -37q31 -36 31 -90
q0 -29 -10.5 -60.5t-28.5 -56.5q-32 -42 -67 -52q-3 -1 -3 -2.5t2 -3.5q36 -24 53 -53t17 -65q0 -60 -33 -105t-88.5 -69t-121.5 -24q-90 0 -138 41.5zM299 218q11 12 14 32l1 8q0 15 -7 25q-13 20 -43 20q-15 0 -28.5 -6t-20.5 -16q-11 -12 -14 -31v-7q0 -16 7 -26
q13 -19 42 -19q32 0 49 20z" />
    <glyph glyph-name="dieresis" unicode="&#xa8;" horiz-adv-x="401" 
d="M298.5 592q-20.5 21 -20.5 54q0 43 28 71t68 28q34 0 54 -20t20 -54q0 -42 -28 -71t-67 -29q-34 0 -54.5 21zM95.5 592q-20.5 21 -20.5 54q0 43 28 71t68 28q34 0 54 -20t20 -54q0 -42 -28 -71t-67 -29q-34 0 -54.5 21z" />
    <glyph glyph-name="copyright" unicode="&#xa9;" horiz-adv-x="774" 
d="M205 31q-70 39 -108.5 109.5t-38.5 161.5q0 26 3 53q12 100 67.5 180.5t141 126.5t184.5 46q91 0 161.5 -39t109.5 -108t39 -157q0 -23 -3 -49q-13 -104 -68.5 -187t-141 -129.5t-185.5 -46.5q-91 0 -161 39zM507.5 133.5q59.5 32.5 98 90.5t47.5 130q2 22 2 33
q0 61 -27 109.5t-76 75.5t-112 27q-68 0 -127 -32t-97 -88t-46 -125q-2 -13 -2 -37q0 -63 26.5 -112.5t74 -76.5t110.5 -27q69 0 128.5 32.5zM310.5 203q-29.5 27 -29.5 73q0 12 1 18l14 116q7 54 44.5 85.5t93.5 31.5q51 0 81 -25.5t30 -69.5q0 -10 -1 -15q-1 -6 -12 -6
l-61 -3q-11 0 -11 7q2 18 -7.5 29t-27.5 11t-30 -11t-14 -29l-16 -127q-2 -17 7.5 -28t27.5 -11q17 0 30 11t15 28q0 4 3.5 6t8.5 2l60 -3q11 0 11 -7q-6 -50 -43.5 -80t-93.5 -30q-51 0 -80.5 27z" />
    <glyph glyph-name="ordfeminine" unicode="&#xaa;" horiz-adv-x="322" 
d="M255 568q5 0 5 5l1 7q3 23 -10.5 37.5t-38.5 14.5q-18 0 -33 -8t-21 -20q-6 -11 -14 -10l-62 5q-12 2 -9 13q9 41 50.5 68.5t96.5 27.5q40 0 70.5 -15t46 -41t12.5 -57l-27 -220q-1 -5 -5 -8.5t-9 -3.5h-62q-5 0 -8 3.5t-2 8.5l1 5q0 3 -2 3.5t-4 -1.5q-31 -25 -82 -25
q-49 0 -76.5 22t-27.5 62q0 9 1 14q7 52 47.5 82.5t103.5 30.5h58zM225.5 443.5q21.5 17.5 23.5 37.5l2 16q2 5 -4 5h-45q-69 0 -69 -45q0 -31 41 -31q30 0 51.5 17.5zM30.5 307.5q3.5 3.5 8.5 3.5h271q5 0 8 -3.5t2 -8.5l-7 -57q-1 -5 -4.5 -8.5t-8.5 -3.5h-271
q-5 0 -8 3.5t-2 8.5l7 57q1 5 4.5 8.5z" />
    <glyph glyph-name="guillemotleft" unicode="&#xab;" horiz-adv-x="483" 
d="M260 115q0 -8 -10 -8h-112q-10 0 -13 8l-63 158q-2 4 -2 6q0 4 4 10l101 158q5 8 16 8h112q6 0 7.5 -4t-1.5 -10l-104 -157q-2 -4 -1 -6l65 -157q1 -2 1 -6zM431 116q0 -4 -3 -6.5t-7 -2.5h-112q-10 0 -13 9l-63 157q-1 2 -1 6q0 6 3 10l101 157q6 9 16 9h111q9 0 9 -6
q0 -3 -3 -8l-102 -157q-3 -3 -1 -6l64 -157q1 -2 1 -5z" />
    <glyph glyph-name="logicalnot" unicode="&#xac;" horiz-adv-x="466" 
d="M53 363.5q4 3.5 9 3.5h393q11 0 11 -12l-28 -227q-1 -5 -4.5 -8.5t-8.5 -3.5h-114q-5 0 -8 3.5t-2 8.5l11 92q2 5 -4 5h-264q-5 0 -8 3.5t-2 8.5l14 118q1 5 5 8.5z" />
    <glyph glyph-name="uni00AD" unicode="&#xad;" horiz-adv-x="402" 
d="M35 222.5q-3 3.5 -2 8.5l15 118q1 5 4.5 8.5t8.5 3.5h330q5 0 8 -3.5t2 -8.5l-15 -118q-1 -5 -4.5 -8.5t-8.5 -3.5h-330q-5 0 -8 3.5z" />
    <glyph glyph-name="registered" unicode="&#xae;" horiz-adv-x="429" 
d="M374 687q40 -22 62.5 -61.5t22.5 -88.5q0 -9 -2 -27q-7 -60 -39 -107.5t-81 -74.5t-105 -27q-79 0 -127.5 49.5t-48.5 128.5q0 9 2 31q7 56 38.5 101.5t80.5 71.5t105 26q52 0 92 -22zM316 388q35 21 56 58t21 83q0 49 -33 81.5t-86 32.5q-42 0 -76.5 -21t-55 -57
t-20.5 -78q0 -53 33 -86.5t85 -33.5q41 0 76 21zM304 493q-4 -1 -4 -6l13 -59v-3q0 -11 -11 -11h-30q-9 0 -11 10l-10 55q-2 4 -4 4q-1 0 -2 -1.5t-1 -3.5l-6 -52q-1 -5 -5 -8.5t-9 -3.5h-27q-5 0 -8 3.5t-2 8.5l20 163q1 5 4.5 8.5t8.5 3.5h61q24 0 38 -14.5t14 -38.5
q0 -37 -29 -55zM259 557q-6 0 -6 -5l-3 -26q-2 -5 4 -5h10q7 0 12 5.5t6 12.5v4q0 14 -14 14h-9z" />
    <glyph glyph-name="macron" unicode="&#xaf;" horiz-adv-x="294" 
d="M54 575.5q-3 3.5 -2 8.5l11 87q1 5 4.5 8.5t8.5 3.5h271q5 0 8 -3.5t2 -8.5l-11 -87q-1 -5 -4.5 -8.5t-8.5 -3.5h-271q-5 0 -8 3.5z" />
    <glyph glyph-name="degree" unicode="&#xb0;" horiz-adv-x="363" 
d="M113.5 508q-41.5 43 -41.5 108q0 52 26 96t70 70t93 26q64 0 105.5 -42t41.5 -106q0 -52 -26 -97t-69.5 -71.5t-93.5 -26.5q-64 0 -105.5 43zM283 593.5q22 22.5 22 53.5q0 25 -16 41.5t-40 16.5q-29 0 -51.5 -22t-22.5 -53q0 -26 16 -42.5t41 -16.5q29 0 51 22.5z" />
    <glyph glyph-name="plusminus" unicode="&#xb1;" horiz-adv-x="466" 
d="M480 470l-15 -118q-1 -5 -4.5 -8.5t-8.5 -3.5h-123q-4 0 -6 -5l-15 -126q-1 -5 -4.5 -8.5t-8.5 -3.5h-114q-5 0 -8 3.5t-2 8.5l16 126q0 5 -5 5h-124q-5 0 -8 3.5t-2 8.5l14 118q1 5 5 8.5t9 3.5h124q5 0 5 5l16 128q1 5 4.5 8.5t8.5 3.5h113q5 0 8.5 -3.5t2.5 -8.5
l-16 -128q0 -5 4 -5h123q11 0 11 -12zM8 3.5q-3 3.5 -2 8.5l14 118q1 5 5 8.5t9 3.5h393q11 0 11 -12l-15 -118q-1 -5 -4.5 -8.5t-8.5 -3.5h-394q-5 0 -8 3.5z" />
    <glyph glyph-name="uni00B2" unicode="&#xb2;" horiz-adv-x="339" 
d="M62 410.5q-3 3.5 -2 8.5l9 68q0 9 8 15q48 41 140 124q62 58 62 83q0 15 -10 24t-27 9q-19 0 -32 -11t-15 -28l-1 -9q-1 -5 -4.5 -8.5t-8.5 -3.5h-80q-5 0 -8 3.5t-2 8.5l3 26q10 51 54.5 81.5t105.5 30.5q60 0 94.5 -31.5t34.5 -78.5q0 -30 -14.5 -57t-44.5 -60
q-27 -28 -88 -82q-1 -1 -23 -20q-3 -2 -2.5 -4t3.5 -2h136q5 0 8 -3.5t2 -8.5l-8 -66q-1 -5 -4.5 -8.5t-8.5 -3.5h-269q-5 0 -8 3.5z" />
    <glyph glyph-name="uni00B3" unicode="&#xb3;" horiz-adv-x="315" 
d="M350 574q0 -18 -2 -28q-4 -34 -19 -64q-21 -37 -58.5 -59t-83.5 -22t-78.5 23t-43.5 64q-6 17 -6 48q2 12 13 12h81q11 0 11 -12t2 -18q1 -7 5 -12q8 -15 27 -15q22 0 34 18q12 16 15 40q1 5 1 13q0 17 -6 29q-7 19 -29 19q-15 0 -29 -9q-6 -3 -9 -3q-5 0 -8 5l-32 49
q-2 3 -2 8q0 6 6 9l89 60q4 2 3 4t-4 2h-120q-5 0 -8 3.5t-2 8.5l8 67q1 5 4.5 8.5t8.5 3.5h248q11 0 11 -12l-9 -70q-2 -10 -9 -15l-74 -53q-5 -5 2 -7q41 -12 58 -60q5 -14 5 -35z" />
    <glyph glyph-name="acute" unicode="&#xb4;" horiz-adv-x="239" 
d="M73.5 582q-1.5 4 1.5 10l63 99q6 9 16 9h119q9 0 9 -6q0 -5 -4 -9l-83 -100q-6 -7 -15 -7h-99q-6 0 -7.5 4z" />
    <glyph glyph-name="uni00B5" unicode="&#xb5;" horiz-adv-x="537" 
d="M381.5 513.5q3.5 3.5 8.5 3.5h138q5 0 8 -3.5t2 -8.5l-60 -493q-1 -5 -4.5 -8.5t-8.5 -3.5h-138q-5 0 -8 3.5t-2 8.5l4 35q1 3 -1 4t-4 -2q-48 -57 -130 -57v0q-5 0 -5 -5l-22 -175q-1 -5 -4.5 -8.5t-8.5 -3.5h-138q-5 0 -8 3.5t-2 8.5l85 693q1 5 4.5 8.5t8.5 3.5h138
q5 0 8 -3.5t2 -8.5l-36 -293l-1 -13q0 -29 15.5 -46.5t42.5 -17.5t47 17t27 45l38 308q1 5 4.5 8.5z" />
    <glyph glyph-name="paragraph" unicode="&#xb6;" horiz-adv-x="623" 
d="M637 700q5 0 8 -3.5t2 -8.5l-107 -876q-1 -5 -5 -8.5t-9 -3.5h-93q-5 0 -8 3.5t-2 8.5l94 767q2 5 -4 5h-84q-4 0 -6 -5l-94 -767q-1 -5 -4.5 -8.5t-8.5 -3.5h-94q-5 0 -8 3.5t-2 8.5l53 434q0 5 -4 5q-94 7 -149 59t-55 135q0 10 2 30q9 66 45 117t96.5 79.5t137.5 28.5
h299z" />
    <glyph glyph-name="periodcentered" unicode="&#xb7;" horiz-adv-x="237" 
d="M70.5 229q-20.5 21 -20.5 54q0 43 28 71t68 28q34 0 54 -20t20 -54q0 -42 -28 -71t-67 -29q-34 0 -54.5 21z" />
    <glyph glyph-name="cedilla" unicode="&#xb8;" horiz-adv-x="174" 
d="M-39 -168l15 61q3 13 16 8q12 -4 18 -4q10 0 17.5 5t11.5 14q2 4 2 12q0 27 -38 57q-5 5 -5 8q0 7 11 7h76q9 0 14 -5q44 -42 44 -88q0 -18 -8 -37q-13 -35 -40.5 -50t-61.5 -15q-36 0 -66 13q-9 3 -6 14z" />
    <glyph glyph-name="uni00B9" unicode="&#xb9;" horiz-adv-x="191" 
d="M154 827h82q11 0 11 -12l-49 -396q-1 -5 -4.5 -8.5t-8.5 -3.5h-79q-5 0 -8 3.5t-2 8.5l38 312q2 5 -4 5l-26 -1q-5 0 -8 3.5t-2 8.5l6 53q1 10 12 14l27 10q8 3 15 3z" />
    <glyph glyph-name="ordmasculine" unicode="&#xba;" horiz-adv-x="344" 
d="M113.5 385q-34.5 26 -46.5 74q-5 16 -5 44q0 11 2 31q6 48 21 77q23 47 64 72t92 25q47 0 81 -24.5t46 -71.5q6 -22 6 -49q0 -11 -2 -27q-2 -18 -8 -39.5t-15 -37.5q-25 -48 -65 -74t-87 -26q-49 0 -83.5 26zM254 482q11 19 15 52q2 18 2 28q0 28 -12.5 42.5t-30.5 14.5
q-27 0 -48 -34q-8 -14 -14 -51q-1 -7 -1 -22q0 -16 3 -30q9 -33 40 -33q30 0 46 33zM37 233.5q-3 3.5 -2 8.5l7 57q0 5 4 8.5t9 3.5h277q5 0 8 -3.5t2 -8.5l-7 -57q-1 -5 -4.5 -8.5t-8.5 -3.5h-277q-5 0 -8 3.5z" />
    <glyph glyph-name="guillemotright" unicode="&#xbb;" horiz-adv-x="483" 
d="M48 113q0 4 3 8l103 157q3 3 1 6l-65 157q-1 2 -1 5q0 4 3 6.5t8 2.5h111q10 0 14 -8l63 -158q1 -2 1 -6q0 -5 -3 -10l-102 -158q-5 -8 -16 -8h-111q-9 0 -9 6zM219 113q0 4 3 8l103 157q3 3 1 6l-65 157q-1 2 -1 5q0 4 3 6.5t8 2.5h111q10 0 14 -8l63 -158q1 -2 1 -6
q0 -5 -3 -10l-102 -158q-5 -8 -16 -8h-111q-9 0 -9 6z" />
    <glyph glyph-name="onequarter" unicode="&#xbc;" horiz-adv-x="809" 
d="M138 700h82q11 0 11 -12l-49 -396q-1 -5 -4.5 -8.5t-8.5 -3.5h-79q-5 0 -8 3.5t-2 8.5l38 312q2 5 -4 5l-26 -1q-5 0 -8 3.5t-2 8.5l6 53q1 10 12 14l27 10q8 3 15 3zM82.5 4q-2.5 4 1.5 10l458 678q2 4 6.5 6t8.5 2h89q6 0 8.5 -4t-1.5 -10l-457 -678q-5 -8 -16 -8h-89
q-6 0 -8.5 4zM784.5 193.5q3.5 -3.5 2.5 -8.5l-9 -71q-1 -5 -4.5 -8.5t-8.5 -3.5h-19q-5 0 -5 -5l-10 -85q-1 -5 -5 -8.5t-9 -3.5h-78q-5 0 -8 3.5t-2 8.5l10 85q0 5 -4 5h-177q-5 0 -8 3.5t-2 8.5l7 56q2 8 5 15l124 226q4 9 14 9h84q6 0 8 -4t-1 -10l-110 -203q-1 -2 0 -4
t3 -2h65q2 0 3.5 1.5t1.5 3.5l7 58q1 5 4.5 8.5t8.5 3.5h79q5 0 8 -3.5t2 -8.5l-7 -58q-2 -5 4 -5h18q5 0 8.5 -3.5z" />
    <glyph glyph-name="onehalf" unicode="&#xbd;" horiz-adv-x="780" 
d="M138 700h82q11 0 11 -12l-49 -396q-1 -5 -4.5 -8.5t-8.5 -3.5h-79q-5 0 -8 3.5t-2 8.5l38 312q2 5 -4 5l-26 -1q-5 0 -8 3.5t-2 8.5l6 53q1 10 12 14l27 10q8 3 15 3zM82.5 4q-2.5 4 1.5 10l458 678q2 4 6.5 6t8.5 2h89q6 0 8.5 -4t-1.5 -10l-457 -678q-5 -8 -16 -8h-89
q-6 0 -8.5 4zM451 3.5q-3 3.5 -2 8.5l9 68q0 9 8 15q48 41 140 124q62 58 62 83q0 15 -10 24t-27 9q-19 0 -32 -11t-15 -28l-1 -9q-1 -5 -4.5 -8.5t-8.5 -3.5h-80q-5 0 -8 3.5t-2 8.5l3 26q10 51 54.5 81.5t105.5 30.5q60 0 94.5 -31.5t34.5 -78.5q0 -30 -14.5 -57
t-44.5 -60q-27 -28 -88 -82q-1 -1 -23 -20q-3 -2 -2.5 -4t3.5 -2h136q5 0 8 -3.5t2 -8.5l-8 -66q-1 -5 -4.5 -8.5t-8.5 -3.5h-269q-5 0 -8 3.5z" />
    <glyph glyph-name="threequarters" unicode="&#xbe;" horiz-adv-x="894" 
d="M335 450q0 -18 -2 -28q-4 -34 -19 -64q-21 -37 -58.5 -59t-83.5 -22t-78.5 23t-43.5 64q-6 17 -6 48q2 12 13 12h81q11 0 11 -12t2 -18q1 -7 5 -12q8 -15 27 -15q22 0 34 18q12 16 15 40q1 5 1 13q0 17 -6 29q-7 19 -29 19q-15 0 -29 -9q-6 -3 -9 -3q-5 0 -8 5l-32 49
q-2 3 -2 8q0 6 6 9l89 60q4 2 3 4t-4 2h-120q-5 0 -8 3.5t-2 8.5l8 67q1 5 4.5 8.5t8.5 3.5h248q11 0 11 -12l-9 -70q-2 -10 -9 -15l-74 -53q-5 -5 2 -7q41 -12 58 -60q5 -14 5 -35zM168.5 4q-2.5 4 1.5 10l458 678q2 4 6.5 6t8.5 2h89q6 0 8.5 -4t-1.5 -10l-457 -678
q-5 -8 -16 -8h-89q-6 0 -8.5 4zM870.5 193.5q3.5 -3.5 2.5 -8.5l-9 -71q-1 -5 -4.5 -8.5t-8.5 -3.5h-19q-5 0 -5 -5l-10 -85q-1 -5 -5 -8.5t-9 -3.5h-78q-5 0 -8 3.5t-2 8.5l10 85q0 5 -4 5h-177q-5 0 -8 3.5t-2 8.5l7 56q2 8 5 15l124 226q4 9 14 9h84q6 0 8 -4t-1 -10
l-110 -203q-1 -2 0 -4t3 -2h65q2 0 3.5 1.5t1.5 3.5l7 58q1 5 4.5 8.5t8.5 3.5h79q5 0 8 -3.5t2 -8.5l-7 -58q-2 -5 4 -5h18q5 0 8.5 -3.5z" />
    <glyph glyph-name="questiondown" unicode="&#xbf;" horiz-adv-x="527" 
d="M381.5 483.5q20.5 -20.5 20.5 -52.5q0 -44 -27.5 -72.5t-67.5 -28.5q-33 0 -53.5 20t-20.5 53q0 43 27.5 72t68.5 29q32 0 52.5 -20.5zM371 267.5q3 -3.5 2 -8.5l-3 -24q-5 -38 -23 -65.5t-40.5 -45t-58.5 -40.5q-42 -27 -61.5 -45.5t-19.5 -47.5q0 -23 18.5 -36.5
t49.5 -13.5q37 0 61 17.5t28 45.5l1 11q1 11 13 11l137 -6q5 0 8 -4t2 -9v-3q-8 -63 -45 -111.5t-96 -75.5t-131 -27q-98 0 -154.5 47t-56.5 126q0 8 2 28q6 45 25 76.5t43.5 51.5t60.5 43q38 24 56.5 41t21.5 42l1 14q1 5 4.5 8.5t8.5 3.5h138q5 0 8 -3.5z" />
    <glyph glyph-name="Agrave" unicode="&#xc0;" horiz-adv-x="673" 
d="M463 3q-3 3 -4 7l-14 89q-2 4 -5 4h-221q-3 0 -5 -4l-36 -89q-5 -10 -15 -10h-148q-6 0 -8.5 3.5t0.5 10.5l290 676q5 10 14 10h183q9 0 12 -10l125 -676v-4q0 -10 -11 -10h-149q-5 0 -8 3zM273 231h144q5 0 5 6l-42 257q-1 4 -3 3.5t-3 -3.5l-104 -257q-3 -6 3 -6z
M470 770q0 -4 -3 -6.5t-8 -2.5h-99q-9 0 -12 7l-59 100q-2 4 -2 7t3 5.5t8 2.5h119q9 0 14 -9l38 -99q1 -2 1 -5z" />
    <glyph glyph-name="Aacute" unicode="&#xc1;" horiz-adv-x="673" 
d="M463 3q-3 3 -4 7l-14 89q-2 4 -5 4h-221q-3 0 -5 -4l-36 -89q-5 -10 -15 -10h-148q-6 0 -8.5 3.5t0.5 10.5l290 676q5 10 14 10h183q9 0 12 -10l125 -676v-4q0 -10 -11 -10h-149q-5 0 -8 3zM273 231h144q5 0 5 6l-42 257q-1 4 -3 3.5t-3 -3.5l-104 -257q-3 -6 3 -6z
M337.5 765q-1.5 4 1.5 10l63 99q6 9 16 9h119q9 0 9 -6q0 -5 -4 -9l-83 -100q-6 -7 -15 -7h-99q-6 0 -7.5 4z" />
    <glyph glyph-name="Acircumflex" unicode="&#xc2;" horiz-adv-x="673" 
d="M463 3q-3 3 -4 7l-14 89q-2 4 -5 4h-221q-3 0 -5 -4l-36 -89q-5 -10 -15 -10h-148q-6 0 -8.5 3.5t0.5 10.5l290 676q5 10 14 10h183q9 0 12 -10l125 -676v-4q0 -10 -11 -10h-149q-5 0 -8 3zM273 231h144q5 0 5 6l-42 257q-1 4 -3 3.5t-3 -3.5l-104 -257q-3 -6 3 -6z
M245 762q0 4 3 8l83 105q5 8 14 8h155q10 0 13 -8l59 -105q2 -4 2 -6q0 -4 -3.5 -6.5t-8.5 -2.5h-104q-10 0 -13 8l-26 53q-1 3 -3 3t-3 -3l-39 -53q-5 -8 -14 -8h-106q-9 0 -9 7z" />
    <glyph glyph-name="Atilde" unicode="&#xc3;" horiz-adv-x="673" 
d="M463 3q-3 3 -4 7l-14 89q-2 4 -5 4h-221q-3 0 -5 -4l-36 -89q-5 -10 -15 -10h-148q-6 0 -8.5 3.5t0.5 10.5l290 676q5 10 14 10h183q9 0 12 -10l125 -676v-4q0 -10 -11 -10h-149q-5 0 -8 3zM273 231h144q5 0 5 6l-42 257q-1 4 -3 3.5t-3 -3.5l-104 -257q-3 -6 3 -6z
M434.5 750q-13.5 4 -29.5 13q-18 9 -27.5 12t-19.5 3q-32 0 -54 -20q-11 -10 -17 -1l-42 54q-3 5 -3 8q0 4 3 8q20 30 50.5 48.5t66.5 18.5q19 0 33.5 -5t26 -10.5t14.5 -7.5q12 -7 24 -11.5t23 -4.5q27 0 48 22q11 11 16 1l37 -56q5 -7 2 -13q-15 -27 -46 -45t-71 -18
q-21 0 -34.5 4z" />
    <glyph glyph-name="Adieresis" unicode="&#xc4;" horiz-adv-x="673" 
d="M463 3q-3 3 -4 7l-14 89q-2 4 -5 4h-221q-3 0 -5 -4l-36 -89q-5 -10 -15 -10h-148q-6 0 -8.5 3.5t0.5 10.5l290 676q5 10 14 10h183q9 0 12 -10l125 -676v-4q0 -10 -11 -10h-149q-5 0 -8 3zM273 231h144q5 0 5 6l-42 257q-1 4 -3 3.5t-3 -3.5l-104 -257q-3 -6 3 -6z
M454.5 775q-20.5 21 -20.5 54q0 43 28 71t68 28q34 0 54 -20t20 -54q0 -42 -28 -71t-67 -29q-34 0 -54.5 21zM251.5 775q-20.5 21 -20.5 54q0 43 28 71t68 28q34 0 54 -20t20 -54q0 -42 -28 -71t-67 -29q-34 0 -54.5 21z" />
    <glyph glyph-name="Aring" unicode="&#xc5;" horiz-adv-x="673" 
d="M463 3q-3 3 -4 7l-14 89q-2 4 -5 4h-221q-3 0 -5 -4l-36 -89q-5 -10 -15 -10h-148q-6 0 -8.5 3.5t0.5 10.5l290 676q5 10 14 10h183q9 0 12 -10l125 -676v-4q0 -10 -11 -10h-149q-5 0 -8 3zM273 231h144q5 0 5 6l-42 257q-1 4 -3 3.5t-3 -3.5l-104 -257q-3 -6 3 -6z
M326 771.5q-31 31.5 -31 79.5q0 40 19.5 74t52.5 54t71 20q49 0 80.5 -31.5t31.5 -80.5q0 -40 -19.5 -74t-52.5 -53.5t-72 -19.5q-49 0 -80 31.5zM451 840.5q15 15.5 15 36.5q0 17 -11 28t-28 11q-19 0 -33.5 -15.5t-14.5 -36.5q0 -17 10.5 -28t26.5 -11q20 0 35 15.5z" />
    <glyph glyph-name="AE" unicode="&#xc6;" horiz-adv-x="945" 
d="M960.5 561.5q-3.5 -3.5 -8.5 -3.5h-301q-6 0 -6 -5l-15 -123q0 -5 4 -5h192q5 0 8 -3.5t2 -8.5l-14 -117q-1 -5 -4.5 -8.5t-8.5 -3.5h-192q-4 0 -6 -5l-16 -132q0 -5 4 -5h302q5 0 8 -3.5t2 -8.5l-14 -118q-1 -5 -4.5 -8.5t-8.5 -3.5h-456q-5 0 -8 3.5t-2 8.5l10 86
q2 5 -4 5h-181q-2 0 -4 -1t-3 -3l-53 -90q-4 -9 -14 -9h-153q-6 0 -8.5 3.5t1.5 10.5l410 677q6 9 15 9h536q5 0 8 -3.5t2 -8.5l-15 -118q-1 -5 -4.5 -8.5zM318 233q1 -2 3 -2h119q5 0 5 5l32 260q1 4 -1.5 4.5t-4.5 -2.5l-153 -261q-1 -2 0 -4z" />
    <glyph glyph-name="Ccedilla" unicode="&#xc7;" horiz-adv-x="590" 
d="M582 461l-139 -9q-11 0 -10 11q1 6 1 17q0 40 -23.5 63t-63.5 23q-44 0 -75 -28.5t-37 -74.5l-28 -227q-1 -5 -1 -15q0 -40 24 -63.5t64 -23.5q45 0 75.5 28t35.5 74q2 11 13 11l137 -7q11 0 11 -10q-12 -96 -78 -159.5t-166 -75.5q-6 -1 -3 -6q29 -35 29 -72
q0 -20 -7 -37q-13 -35 -41 -50.5t-61 -15.5q-34 0 -66 14q-9 3 -6 14l15 61q2 6 6 8t9 -1q9 -3 17 -3q22 0 31 18q2 8 2 12q0 28 -42 61q0 1 -5 3q-74 19 -114.5 72.5t-40.5 132.5q0 24 2 37l27 216q9 74 48 130.5t102 87.5t140 31q108 0 170.5 -54.5t62.5 -147.5
q0 -10 -2 -34v-5q-2 -6 -13 -6z" />
    <glyph glyph-name="Egrave" unicode="&#xc8;" horiz-adv-x="559" 
d="M575.5 561.5q-3.5 -3.5 -8.5 -3.5h-304q-6 0 -6 -5l-15 -123q0 -5 4 -5h195q5 0 8 -3.5t2 -8.5l-14 -117q-1 -5 -4.5 -8.5t-8.5 -3.5h-195q-4 0 -6 -5l-16 -132q0 -5 4 -5h305q5 0 8 -3.5t2 -8.5l-14 -118q-1 -5 -4.5 -8.5t-8.5 -3.5h-459q-5 0 -8 3.5t-2 8.5l83 676
q0 5 4 8.5t9 3.5h459q5 0 8 -3.5t2 -8.5l-15 -118q-1 -5 -4.5 -8.5zM422 770q0 -4 -3 -6.5t-8 -2.5h-99q-9 0 -12 7l-59 100q-2 4 -2 7t3 5.5t8 2.5h119q9 0 14 -9l38 -99q1 -2 1 -5z" />
    <glyph glyph-name="Eacute" unicode="&#xc9;" horiz-adv-x="559" 
d="M575.5 561.5q-3.5 -3.5 -8.5 -3.5h-304q-6 0 -6 -5l-15 -123q0 -5 4 -5h195q5 0 8 -3.5t2 -8.5l-14 -117q-1 -5 -4.5 -8.5t-8.5 -3.5h-195q-4 0 -6 -5l-16 -132q0 -5 4 -5h305q5 0 8 -3.5t2 -8.5l-14 -118q-1 -5 -4.5 -8.5t-8.5 -3.5h-459q-5 0 -8 3.5t-2 8.5l83 676
q0 5 4 8.5t9 3.5h459q5 0 8 -3.5t2 -8.5l-15 -118q-1 -5 -4.5 -8.5zM289.5 765q-1.5 4 1.5 10l63 99q6 9 16 9h119q9 0 9 -6q0 -5 -4 -9l-83 -100q-6 -7 -15 -7h-99q-6 0 -7.5 4z" />
    <glyph glyph-name="Ecircumflex" unicode="&#xca;" horiz-adv-x="559" 
d="M575.5 561.5q-3.5 -3.5 -8.5 -3.5h-304q-6 0 -6 -5l-15 -123q0 -5 4 -5h195q5 0 8 -3.5t2 -8.5l-14 -117q-1 -5 -4.5 -8.5t-8.5 -3.5h-195q-4 0 -6 -5l-16 -132q0 -5 4 -5h305q5 0 8 -3.5t2 -8.5l-14 -118q-1 -5 -4.5 -8.5t-8.5 -3.5h-459q-5 0 -8 3.5t-2 8.5l83 676
q0 5 4 8.5t9 3.5h459q5 0 8 -3.5t2 -8.5l-15 -118q-1 -5 -4.5 -8.5zM197 762q0 4 3 8l83 105q5 8 14 8h155q10 0 13 -8l59 -105q2 -4 2 -6q0 -4 -3.5 -6.5t-8.5 -2.5h-104q-10 0 -13 8l-26 53q-1 3 -3 3t-3 -3l-39 -53q-5 -8 -14 -8h-106q-9 0 -9 7z" />
    <glyph glyph-name="Edieresis" unicode="&#xcb;" horiz-adv-x="559" 
d="M575.5 561.5q-3.5 -3.5 -8.5 -3.5h-304q-6 0 -6 -5l-15 -123q0 -5 4 -5h195q5 0 8 -3.5t2 -8.5l-14 -117q-1 -5 -4.5 -8.5t-8.5 -3.5h-195q-4 0 -6 -5l-16 -132q0 -5 4 -5h305q5 0 8 -3.5t2 -8.5l-14 -118q-1 -5 -4.5 -8.5t-8.5 -3.5h-459q-5 0 -8 3.5t-2 8.5l83 676
q0 5 4 8.5t9 3.5h459q5 0 8 -3.5t2 -8.5l-15 -118q-1 -5 -4.5 -8.5zM407.5 775q-20.5 21 -20.5 54q0 43 28 71t68 28q34 0 54 -20t20 -54q0 -42 -28 -71t-67 -29q-34 0 -54.5 21zM204.5 775q-20.5 21 -20.5 54q0 43 28 71t68 28q34 0 54 -20t20 -54q0 -42 -28 -71t-67 -29
q-34 0 -54.5 21z" />
    <glyph glyph-name="Igrave" unicode="&#xcc;" horiz-adv-x="257" 
d="M32 3.5q-3 3.5 -2 8.5l83 676q0 5 4 8.5t9 3.5h137q11 0 11 -12l-83 -676q-1 -5 -4.5 -8.5t-8.5 -3.5h-138q-5 0 -8 3.5zM264 770q0 -4 -3 -6.5t-8 -2.5h-99q-9 0 -12 7l-59 100q-2 4 -2 7t3 5.5t8 2.5h119q9 0 14 -9l38 -99q1 -2 1 -5z" />
    <glyph glyph-name="Iacute" unicode="&#xcd;" horiz-adv-x="257" 
d="M32 3.5q-3 3.5 -2 8.5l83 676q0 5 4 8.5t9 3.5h137q11 0 11 -12l-83 -676q-1 -5 -4.5 -8.5t-8.5 -3.5h-138q-5 0 -8 3.5zM131.5 765q-1.5 4 1.5 10l63 99q6 9 16 9h119q9 0 9 -6q0 -5 -4 -9l-83 -100q-6 -7 -15 -7h-99q-6 0 -7.5 4z" />
    <glyph glyph-name="Icircumflex" unicode="&#xce;" horiz-adv-x="257" 
d="M32 3.5q-3 3.5 -2 8.5l83 676q0 5 4 8.5t9 3.5h137q11 0 11 -12l-83 -676q-1 -5 -4.5 -8.5t-8.5 -3.5h-138q-5 0 -8 3.5zM39 762q0 4 3 8l83 105q5 8 14 8h155q10 0 13 -8l59 -105q2 -4 2 -6q0 -4 -3.5 -6.5t-8.5 -2.5h-104q-10 0 -13 8l-26 53q-1 3 -3 3t-3 -3l-39 -53
q-5 -8 -14 -8h-106q-9 0 -9 7z" />
    <glyph glyph-name="Idieresis" unicode="&#xcf;" horiz-adv-x="257" 
d="M32 3.5q-3 3.5 -2 8.5l83 676q0 5 4 8.5t9 3.5h137q11 0 11 -12l-83 -676q-1 -5 -4.5 -8.5t-8.5 -3.5h-138q-5 0 -8 3.5zM248.5 775q-20.5 21 -20.5 54q0 43 28 71t68 28q34 0 54 -20t20 -54q0 -42 -28 -71t-67 -29q-34 0 -54.5 21zM45.5 775q-20.5 21 -20.5 54
q0 43 28 71t68 28q34 0 54 -20t20 -54q0 -42 -28 -71t-67 -29q-34 0 -54.5 21z" />
    <glyph glyph-name="Eth" unicode="&#xd0;" horiz-adv-x="644" 
d="M587 648.5q62 -51.5 62 -138.5q0 -9 -2 -29l-32 -262q-8 -65 -46 -115t-99 -77t-137 -27h-248q-5 0 -8 3.5t-2 8.5l35 287q2 5 -4 5h-29q-5 0 -8 3.5t-2 8.5l11 87q0 5 4 8.5t9 3.5h29q5 0 5 5l33 268q1 5 4.5 8.5t8.5 3.5h248q106 0 168 -51.5zM482 453q1 7 1 20
q0 39 -20.5 62t-56.5 23h-98q-5 0 -5 -5l-17 -133q0 -5 5 -5h64q5 0 8 -3.5t2 -8.5l-11 -87q-1 -5 -4.5 -8.5t-8.5 -3.5h-64q-4 0 -6 -5l-18 -152q-2 -5 4 -5h99q38 0 66 28.5t35 76.5z" />
    <glyph glyph-name="Ntilde" unicode="&#xd1;" horiz-adv-x="642" 
d="M502.5 696.5q3.5 3.5 8.5 3.5h138q5 0 8 -3.5t2 -8.5l-83 -676q-1 -5 -4.5 -8.5t-8.5 -3.5h-132q-10 0 -13 8l-176 382q-2 3 -4 2.5t-2 -4.5l-45 -376q-1 -5 -4.5 -8.5t-8.5 -3.5h-138q-5 0 -8 3.5t-2 8.5l83 676q0 5 4 8.5t9 3.5h133q9 0 12 -8l176 -381q1 -3 3 -2.5
t3 4.5l45 375q1 5 4.5 8.5zM411.5 750q-13.5 4 -29.5 13q-18 9 -27.5 12t-19.5 3q-32 0 -54 -20q-11 -10 -17 -1l-42 54q-3 5 -3 8q0 4 3 8q20 30 50.5 48.5t66.5 18.5q19 0 33.5 -5t26 -10.5t14.5 -7.5q12 -7 24 -11.5t23 -4.5q27 0 48 22q11 11 16 1l37 -56q5 -7 2 -13
q-15 -27 -46 -45t-71 -18q-21 0 -34.5 4z" />
    <glyph glyph-name="Ograve" unicode="&#xd2;" horiz-adv-x="602" 
d="M109 49q-63 60 -63 162q0 25 2 39l25 200q9 76 49.5 134.5t104 91t141.5 32.5q72 0 125 -27t81.5 -76.5t28.5 -115.5q0 -26 -2 -39l-24 -200q-9 -78 -49.5 -137t-104.5 -91.5t-143 -32.5q-108 0 -171 60zM376.5 162.5q32.5 31.5 38.5 82.5l26 207q1 6 1 18q0 44 -24.5 70
t-66.5 26q-46 0 -78.5 -31.5t-38.5 -82.5l-25 -207q-1 -7 -1 -20q0 -44 24 -69t65 -25q47 0 79.5 31.5zM436 770q0 -4 -3 -6.5t-8 -2.5h-99q-9 0 -12 7l-59 100q-2 4 -2 7t3 5.5t8 2.5h119q9 0 14 -9l38 -99q1 -2 1 -5z" />
    <glyph glyph-name="Oacute" unicode="&#xd3;" horiz-adv-x="602" 
d="M109 49q-63 60 -63 162q0 25 2 39l25 200q9 76 49.5 134.5t104 91t141.5 32.5q72 0 125 -27t81.5 -76.5t28.5 -115.5q0 -26 -2 -39l-24 -200q-9 -78 -49.5 -137t-104.5 -91.5t-143 -32.5q-108 0 -171 60zM376.5 162.5q32.5 31.5 38.5 82.5l26 207q1 6 1 18q0 44 -24.5 70
t-66.5 26q-46 0 -78.5 -31.5t-38.5 -82.5l-25 -207q-1 -7 -1 -20q0 -44 24 -69t65 -25q47 0 79.5 31.5zM303.5 765q-1.5 4 1.5 10l63 99q6 9 16 9h119q9 0 9 -6q0 -5 -4 -9l-83 -100q-6 -7 -15 -7h-99q-6 0 -7.5 4z" />
    <glyph glyph-name="Ocircumflex" unicode="&#xd4;" horiz-adv-x="602" 
d="M109 49q-63 60 -63 162q0 25 2 39l25 200q9 76 49.5 134.5t104 91t141.5 32.5q72 0 125 -27t81.5 -76.5t28.5 -115.5q0 -26 -2 -39l-24 -200q-9 -78 -49.5 -137t-104.5 -91.5t-143 -32.5q-108 0 -171 60zM376.5 162.5q32.5 31.5 38.5 82.5l26 207q1 6 1 18q0 44 -24.5 70
t-66.5 26q-46 0 -78.5 -31.5t-38.5 -82.5l-25 -207q-1 -7 -1 -20q0 -44 24 -69t65 -25q47 0 79.5 31.5zM211 762q0 4 3 8l83 105q5 8 14 8h155q10 0 13 -8l59 -105q2 -4 2 -6q0 -4 -3.5 -6.5t-8.5 -2.5h-104q-10 0 -13 8l-26 53q-1 3 -3 3t-3 -3l-39 -53q-5 -8 -14 -8h-106
q-9 0 -9 7z" />
    <glyph glyph-name="Otilde" unicode="&#xd5;" horiz-adv-x="602" 
d="M109 49q-63 60 -63 162q0 25 2 39l25 200q9 76 49.5 134.5t104 91t141.5 32.5q72 0 125 -27t81.5 -76.5t28.5 -115.5q0 -26 -2 -39l-24 -200q-9 -78 -49.5 -137t-104.5 -91.5t-143 -32.5q-108 0 -171 60zM376.5 162.5q32.5 31.5 38.5 82.5l26 207q1 6 1 18q0 44 -24.5 70
t-66.5 26q-46 0 -78.5 -31.5t-38.5 -82.5l-25 -207q-1 -7 -1 -20q0 -44 24 -69t65 -25q47 0 79.5 31.5zM400.5 750q-13.5 4 -29.5 13q-18 9 -27.5 12t-19.5 3q-32 0 -54 -20q-11 -10 -17 -1l-42 54q-3 5 -3 8q0 4 3 8q20 30 50.5 48.5t66.5 18.5q19 0 33.5 -5t26 -10.5
t14.5 -7.5q12 -7 24 -11.5t23 -4.5q27 0 48 22q11 11 16 1l37 -56q5 -7 2 -13q-15 -27 -46 -45t-71 -18q-21 0 -34.5 4z" />
    <glyph glyph-name="Odieresis" unicode="&#xd6;" horiz-adv-x="602" 
d="M109 49q-63 60 -63 162q0 25 2 39l25 200q9 76 49.5 134.5t104 91t141.5 32.5q72 0 125 -27t81.5 -76.5t28.5 -115.5q0 -26 -2 -39l-24 -200q-9 -78 -49.5 -137t-104.5 -91.5t-143 -32.5q-108 0 -171 60zM376.5 162.5q32.5 31.5 38.5 82.5l26 207q1 6 1 18q0 44 -24.5 70
t-66.5 26q-46 0 -78.5 -31.5t-38.5 -82.5l-25 -207q-1 -7 -1 -20q0 -44 24 -69t65 -25q47 0 79.5 31.5zM420.5 775q-20.5 21 -20.5 54q0 43 28 71t68 28q34 0 54 -20t20 -54q0 -42 -28 -71t-67 -29q-34 0 -54.5 21zM217.5 775q-20.5 21 -20.5 54q0 43 28 71t68 28
q34 0 54 -20t20 -54q0 -42 -28 -71t-67 -29q-34 0 -54.5 21z" />
    <glyph glyph-name="multiply" unicode="&#xd7;" horiz-adv-x="441" 
d="M443 415q0 -5 -4 -9l-97 -89q-2 -1 -2.5 -3.5t1.5 -4.5l75 -89q2 -3 2 -7q0 -6 -4 -10l-91 -83q-4 -4 -9 -4q-4 0 -7 4l-76 89q-1 2 -3 1.5t-4 -1.5l-100 -91q-4 -4 -8 -4q-3 0 -7 4l-72 84q-2 2 -2 7t4 9l100 91q3 3 1 8l-76 90q-4 4 -4 7q0 4 6 10l90 83q4 4 9 4t8 -4
l76 -90q2 -2 4 -2t4 2l97 89q4 4 8 4q5 0 8 -4l71 -84q2 -2 2 -7z" />
    <glyph glyph-name="Oslash" unicode="&#xd8;" horiz-adv-x="599" 
d="M651 663q0 -5 -3 -10l-60 -74q-1 -2 -1 -7q14 -39 14 -82q0 -19 -3 -40l-24 -200q-9 -78 -49.5 -137t-104.5 -91.5t-143 -32.5q-70 0 -124 26q-4 1 -7 -2l-45 -56q-3 -5 -7.5 -6t-8.5 3l-90 76q-4 4 -4 8q0 5 4 9l60 73q1 2 1 7q-13 38 -13 85q0 12 2 38l25 200
q9 76 49 134.5t103.5 91t142.5 32.5q71 0 123 -26q4 -1 7 2l47 59q4 5 8.5 6t8.5 -3l89 -76q3 -3 3 -7zM438 452q1 6 1 18q0 44 -24.5 70t-66.5 26q-46 0 -78.5 -31.5t-38.5 -82.5l-25 -207q-1 -7 -1 -21q0 -43 23.5 -68t65.5 -25q47 0 79.5 31t38.5 83z" />
    <glyph glyph-name="Ugrave" unicode="&#xd9;" horiz-adv-x="604" 
d="M113.5 49q-62.5 57 -62.5 153q0 12 2 36l56 450q1 5 4.5 8.5t8.5 3.5h138q5 0 8 -3.5t2 -8.5l-56 -450q-1 -5 -1 -16q0 -40 23.5 -64t63.5 -24q43 0 73.5 28.5t35.5 75.5l56 450q1 5 4.5 8.5t8.5 3.5h138q5 0 8 -3.5t2 -8.5l-56 -450q-9 -73 -48 -129t-101 -86.5
t-139 -30.5q-106 0 -168.5 57zM438 770q0 -4 -3 -6.5t-8 -2.5h-99q-9 0 -12 7l-59 100q-2 4 -2 7t3 5.5t8 2.5h119q9 0 14 -9l38 -99q1 -2 1 -5z" />
    <glyph glyph-name="Uacute" unicode="&#xda;" horiz-adv-x="604" 
d="M113.5 49q-62.5 57 -62.5 153q0 12 2 36l56 450q1 5 4.5 8.5t8.5 3.5h138q5 0 8 -3.5t2 -8.5l-56 -450q-1 -5 -1 -16q0 -40 23.5 -64t63.5 -24q43 0 73.5 28.5t35.5 75.5l56 450q1 5 4.5 8.5t8.5 3.5h138q5 0 8 -3.5t2 -8.5l-56 -450q-9 -73 -48 -129t-101 -86.5
t-139 -30.5q-106 0 -168.5 57zM305.5 765q-1.5 4 1.5 10l63 99q6 9 16 9h119q9 0 9 -6q0 -5 -4 -9l-83 -100q-6 -7 -15 -7h-99q-6 0 -7.5 4z" />
    <glyph glyph-name="Ucircumflex" unicode="&#xdb;" horiz-adv-x="604" 
d="M113.5 49q-62.5 57 -62.5 153q0 12 2 36l56 450q1 5 4.5 8.5t8.5 3.5h138q5 0 8 -3.5t2 -8.5l-56 -450q-1 -5 -1 -16q0 -40 23.5 -64t63.5 -24q43 0 73.5 28.5t35.5 75.5l56 450q1 5 4.5 8.5t8.5 3.5h138q5 0 8 -3.5t2 -8.5l-56 -450q-9 -73 -48 -129t-101 -86.5
t-139 -30.5q-106 0 -168.5 57zM213 762q0 4 3 8l83 105q5 8 14 8h155q10 0 13 -8l59 -105q2 -4 2 -6q0 -4 -3.5 -6.5t-8.5 -2.5h-104q-10 0 -13 8l-26 53q-1 3 -3 3t-3 -3l-39 -53q-5 -8 -14 -8h-106q-9 0 -9 7z" />
    <glyph glyph-name="Udieresis" unicode="&#xdc;" horiz-adv-x="604" 
d="M113.5 49q-62.5 57 -62.5 153q0 12 2 36l56 450q1 5 4.5 8.5t8.5 3.5h138q5 0 8 -3.5t2 -8.5l-56 -450q-1 -5 -1 -16q0 -40 23.5 -64t63.5 -24q43 0 73.5 28.5t35.5 75.5l56 450q1 5 4.5 8.5t8.5 3.5h138q5 0 8 -3.5t2 -8.5l-56 -450q-9 -73 -48 -129t-101 -86.5
t-139 -30.5q-106 0 -168.5 57zM422.5 775q-20.5 21 -20.5 54q0 43 28 71t68 28q34 0 54 -20t20 -54q0 -42 -28 -71t-67 -29q-34 0 -54.5 21zM219.5 775q-20.5 21 -20.5 54q0 43 28 71t68 28q34 0 54 -20t20 -54q0 -42 -28 -71t-67 -29q-34 0 -54.5 21z" />
    <glyph glyph-name="Yacute" unicode="&#xdd;" horiz-adv-x="616" 
d="M211 5.5q-3 3.5 -2 8.5l29 237q2 3 0 6l-146 429q-1 2 -1 5q0 9 11 9h150q9 0 12 -9l75 -253q2 -6 6 0l138 253q4 9 14 9h151q6 0 8.5 -3.5t-1.5 -10.5l-255 -429l-2 -6l-29 -237q-1 -5 -4.5 -8.5t-8.5 -3.5h-137q-5 0 -8 3.5zM310.5 765q-1.5 4 1.5 10l63 99q6 9 16 9
h119q9 0 9 -6q0 -5 -4 -9l-83 -100q-6 -7 -15 -7h-99q-6 0 -7.5 4z" />
    <glyph glyph-name="Thorn" unicode="&#xde;" horiz-adv-x="568" 
d="M518.5 516q53.5 -51 53.5 -135q0 -11 -2 -33q-8 -64 -44.5 -112.5t-92.5 -75.5t-120 -27h-106q-2 0 -3.5 -1.5t-1.5 -3.5l-14 -116q-1 -5 -4.5 -8.5t-8.5 -3.5h-138q-5 0 -8 3.5t-2 8.5l83 676q1 5 4.5 8.5t8.5 3.5h138q5 0 8 -3.5t2 -8.5l-15 -116q0 -5 5 -5h113
q91 0 144.5 -51zM383 290q28 24 28 67q0 32 -21.5 50t-57.5 18h-89q-5 0 -5 -5l-18 -149q-2 -5 4 -5h88q43 0 71 24z" />
    <glyph glyph-name="germandbls" unicode="&#xdf;" horiz-adv-x="563" 
d="M27 4.5q-3 3.5 -2 8.5l57 462q14 111 83 172t182 61q99 0 159.5 -46.5t60.5 -125.5q0 -102 -81 -151q-6 -3 -1 -6q27 -19 42.5 -55t15.5 -82q0 -10 -2 -32q-12 -100 -86.5 -155t-198.5 -55h-22q-5 0 -8 3.5t-2 8.5l14 117q1 5 4.5 8.5t8.5 3.5h40q37 0 64.5 27.5
t27.5 72.5q0 33 -19.5 52.5t-49.5 19.5h-37q-5 0 -8 3.5t-2 8.5l13 105q1 5 4.5 8.5t8.5 3.5h35q30 0 53 21.5t23 49.5q0 22 -15 38t-48 16q-36 0 -64 -20t-32 -56l-59 -479q-1 -5 -4.5 -8.5t-8.5 -3.5l-138 1q-5 0 -8 3.5z" />
    <glyph glyph-name="agrave" unicode="&#xe0;" horiz-adv-x="518" 
d="M398.5 513.5q3.5 3.5 8.5 3.5h138q5 0 8 -3.5t2 -8.5l-61 -493q-1 -5 -4.5 -8.5t-8.5 -3.5h-138q-5 0 -8 3.5t-2 8.5l5 38q0 3 -1.5 4t-4.5 -2q-47 -60 -123 -60q-65 0 -110.5 41.5t-57.5 112.5q-4 21 -4 48q0 28 5 66q8 74 35 128q28 60 82 98.5t122 38.5q74 0 103 -51
q2 -3 4 -2t2 4l4 29q1 5 4.5 8.5zM363 258q3 24 3 41q0 23 -6 41q-6 20 -20.5 31.5t-36.5 11.5q-23 0 -41 -12t-29 -33q-16 -27 -23 -80q-2 -14 -2 -38q0 -26 5 -41q6 -20 21.5 -32.5t38.5 -12.5q44 0 68 46q17 28 22 78zM372 587q0 -4 -3 -6.5t-8 -2.5h-99q-9 0 -12 7
l-59 100q-2 4 -2 7t3 5.5t8 2.5h119q9 0 14 -9l38 -99q1 -2 1 -5z" />
    <glyph glyph-name="aacute" unicode="&#xe1;" horiz-adv-x="518" 
d="M398.5 513.5q3.5 3.5 8.5 3.5h138q5 0 8 -3.5t2 -8.5l-61 -493q-1 -5 -4.5 -8.5t-8.5 -3.5h-138q-5 0 -8 3.5t-2 8.5l5 38q0 3 -1.5 4t-4.5 -2q-47 -60 -123 -60q-65 0 -110.5 41.5t-57.5 112.5q-4 21 -4 48q0 28 5 66q8 74 35 128q28 60 82 98.5t122 38.5q74 0 103 -51
q2 -3 4 -2t2 4l4 29q1 5 4.5 8.5zM363 258q3 24 3 41q0 23 -6 41q-6 20 -20.5 31.5t-36.5 11.5q-23 0 -41 -12t-29 -33q-16 -27 -23 -80q-2 -14 -2 -38q0 -26 5 -41q6 -20 21.5 -32.5t38.5 -12.5q44 0 68 46q17 28 22 78zM239.5 582q-1.5 4 1.5 10l63 99q6 9 16 9h119
q9 0 9 -6q0 -5 -4 -9l-83 -100q-6 -7 -15 -7h-99q-6 0 -7.5 4z" />
    <glyph glyph-name="acircumflex" unicode="&#xe2;" horiz-adv-x="518" 
d="M398.5 513.5q3.5 3.5 8.5 3.5h138q5 0 8 -3.5t2 -8.5l-61 -493q-1 -5 -4.5 -8.5t-8.5 -3.5h-138q-5 0 -8 3.5t-2 8.5l5 38q0 3 -1.5 4t-4.5 -2q-47 -60 -123 -60q-65 0 -110.5 41.5t-57.5 112.5q-4 21 -4 48q0 28 5 66q8 74 35 128q28 60 82 98.5t122 38.5q74 0 103 -51
q2 -3 4 -2t2 4l4 29q1 5 4.5 8.5zM363 258q3 24 3 41q0 23 -6 41q-6 20 -20.5 31.5t-36.5 11.5q-23 0 -41 -12t-29 -33q-16 -27 -23 -80q-2 -14 -2 -38q0 -26 5 -41q6 -20 21.5 -32.5t38.5 -12.5q44 0 68 46q17 28 22 78zM147 579q0 4 3 8l83 105q5 8 14 8h155q10 0 13 -8
l59 -105q2 -4 2 -6q0 -4 -3.5 -6.5t-8.5 -2.5h-104q-10 0 -13 8l-26 53q-1 3 -3 3t-3 -3l-39 -53q-5 -8 -14 -8h-106q-9 0 -9 7z" />
    <glyph glyph-name="atilde" unicode="&#xe3;" horiz-adv-x="518" 
d="M398.5 513.5q3.5 3.5 8.5 3.5h138q5 0 8 -3.5t2 -8.5l-61 -493q-1 -5 -4.5 -8.5t-8.5 -3.5h-138q-5 0 -8 3.5t-2 8.5l5 38q0 3 -1.5 4t-4.5 -2q-47 -60 -123 -60q-65 0 -110.5 41.5t-57.5 112.5q-4 21 -4 48q0 28 5 66q8 74 35 128q28 60 82 98.5t122 38.5q74 0 103 -51
q2 -3 4 -2t2 4l4 29q1 5 4.5 8.5zM363 258q3 24 3 41q0 23 -6 41q-6 20 -20.5 31.5t-36.5 11.5q-23 0 -41 -12t-29 -33q-16 -27 -23 -80q-2 -14 -2 -38q0 -26 5 -41q6 -20 21.5 -32.5t38.5 -12.5q44 0 68 46q17 28 22 78zM336.5 567q-13.5 4 -29.5 13q-18 9 -27.5 12
t-19.5 3q-32 0 -54 -20q-11 -10 -17 -1l-42 54q-3 5 -3 8q0 4 3 8q20 30 50.5 48.5t66.5 18.5q19 0 33.5 -5t26 -10.5t14.5 -7.5q12 -7 24 -11.5t23 -4.5q27 0 48 22q11 11 16 1l37 -56q5 -7 2 -13q-15 -27 -46 -45t-71 -18q-21 0 -34.5 4z" />
    <glyph glyph-name="adieresis" unicode="&#xe4;" horiz-adv-x="518" 
d="M398.5 513.5q3.5 3.5 8.5 3.5h138q5 0 8 -3.5t2 -8.5l-61 -493q-1 -5 -4.5 -8.5t-8.5 -3.5h-138q-5 0 -8 3.5t-2 8.5l5 38q0 3 -1.5 4t-4.5 -2q-47 -60 -123 -60q-65 0 -110.5 41.5t-57.5 112.5q-4 21 -4 48q0 28 5 66q8 74 35 128q28 60 82 98.5t122 38.5q74 0 103 -51
q2 -3 4 -2t2 4l4 29q1 5 4.5 8.5zM363 258q3 24 3 41q0 23 -6 41q-6 20 -20.5 31.5t-36.5 11.5q-23 0 -41 -12t-29 -33q-16 -27 -23 -80q-2 -14 -2 -38q0 -26 5 -41q6 -20 21.5 -32.5t38.5 -12.5q44 0 68 46q17 28 22 78zM356.5 592q-20.5 21 -20.5 54q0 43 28 71t68 28
q34 0 54 -20t20 -54q0 -42 -28 -71t-67 -29q-34 0 -54.5 21zM153.5 592q-20.5 21 -20.5 54q0 43 28 71t68 28q34 0 54 -20t20 -54q0 -42 -28 -71t-67 -29q-34 0 -54.5 21z" />
    <glyph glyph-name="aring" unicode="&#xe5;" horiz-adv-x="518" 
d="M398.5 513.5q3.5 3.5 8.5 3.5h138q5 0 8 -3.5t2 -8.5l-61 -493q-1 -5 -4.5 -8.5t-8.5 -3.5h-138q-5 0 -8 3.5t-2 8.5l5 38q0 3 -1.5 4t-4.5 -2q-47 -60 -123 -60q-65 0 -110.5 41.5t-57.5 112.5q-4 21 -4 48q0 28 5 66q8 74 35 128q28 60 82 98.5t122 38.5q74 0 103 -51
q2 -3 4 -2t2 4l4 29q1 5 4.5 8.5zM363 258q3 24 3 41q0 23 -6 41q-6 20 -20.5 31.5t-36.5 11.5q-23 0 -41 -12t-29 -33q-16 -27 -23 -80q-2 -14 -2 -38q0 -26 5 -41q6 -20 21.5 -32.5t38.5 -12.5q44 0 68 46q17 28 22 78zM228 588.5q-31 31.5 -31 79.5q0 40 19.5 74t52.5 54
t71 20q49 0 80.5 -31.5t31.5 -80.5q0 -40 -19.5 -74t-52.5 -53.5t-72 -19.5q-49 0 -80 31.5zM353 657.5q15 15.5 15 36.5q0 17 -11 28t-28 11q-19 0 -33.5 -15.5t-14.5 -36.5q0 -17 10.5 -28t26.5 -11q20 0 35 15.5z" />
    <glyph glyph-name="ae" unicode="&#xe6;" horiz-adv-x="816" 
d="M62.5 26.5q-47.5 34.5 -47.5 98.5q0 14 1 21q9 72 66.5 115t154.5 43h94q4 0 6 5l1 14q1 4 1 10q0 23 -15.5 36.5t-44.5 13.5q-23 0 -41 -9t-25 -23q-6 -11 -15 -10l-137 19q-10 2 -9 12q10 43 44.5 78t84.5 55t103 20q54 0 97 -21.5t60 -53.5q3 -4 6 0q24 30 67.5 52.5
t92.5 22.5q44 0 85 -18.5t70.5 -53t38.5 -80.5q5 -23 5 -56q0 -32 -6 -94q-3 -13 -14 -13h-291q-5 0 -5 -5l2 -16q4 -29 28.5 -42.5t62.5 -13.5q67 0 103 36q5 5 10 5q4 0 7 -4l55 -73q3 -3 3 -7q0 -5 -5 -10q-40 -41 -92 -64.5t-109 -23.5q-59 0 -102.5 24t-58.5 59
q-1 2 -2 3t-2 0q-27 -38 -80.5 -62t-120.5 -24q-79 0 -126.5 34.5zM503 305.5q1 -1.5 3 -1.5h135q5 0 5 5q0 4 -1 11t-2 12q-5 23 -20.5 37t-40.5 14q-24 0 -43 -14t-30 -37q-5 -11 -6 -23q-1 -2 0 -3.5zM290.5 128q26.5 20 30.5 53l3 24q0 5 -4 5h-59q-38 0 -60.5 -15.5
t-22.5 -42.5q0 -19 14 -31.5t40 -12.5q32 0 58.5 20z" />
    <glyph glyph-name="ccedilla" unicode="&#xe7;" horiz-adv-x="527" 
d="M225 336q-14 -28 -20 -76q-3 -21 -3 -39q0 -21 3 -36q13 -51 63 -51q25 0 45 13.5t31 38.5l2 6l1 4q4 12 15 10l133 -22q11 -2 8 -13q-4 -18 -10 -31q-24 -56 -72 -92.5t-110 -49.5q-3 0 -3.5 -2t1.5 -4q31 -37 31 -76q0 -19 -7 -36q-14 -35 -41.5 -50.5t-61.5 -15.5
t-66 14q-9 4 -6 14l15 61q1 6 6 8t10 -1q8 -3 16 -3q23 0 30 19q3 6 3 13q0 25 -37 56q-2 2 -6 3q-58 12 -96.5 50.5t-52.5 97.5q-7 28 -7 64q0 26 3 51q8 68 32 115q34 70 98.5 109.5t144.5 39.5t136.5 -41t69.5 -104q4 -16 4 -39q-2 -12 -12 -13l-138 -21h-2q-9 0 -10 10
q0 6 -1 9q0 3 -2 13q-5 19 -22 31.5t-42 12.5q-51 0 -73 -47z" />
    <glyph glyph-name="egrave" unicode="&#xe8;" horiz-adv-x="532" 
d="M517 225q-3 -12 -15 -12h-295q-6 0 -6 -5q1 -15 6 -29q9 -21 31 -34t56 -13q60 0 101 41q4 5 9 5q4 0 7 -4l64 -88q3 -3 3 -7t-5 -9q-38 -38 -90.5 -58t-111.5 -20q-88 0 -145 39.5t-76 110.5q-9 33 -9 71q0 21 3 45q6 55 29 109q34 74 97.5 116.5t142.5 42.5
q64 0 111 -28.5t72.5 -79t26.5 -114.5q1 -30 -6 -79zM222 334q-3 -7 -7 -21q-2 -5 3 -5h138q5 0 5 5q0 7 -2 19q-4 25 -20.5 38t-43.5 13q-49 0 -73 -49zM378 587q0 -4 -3 -6.5t-8 -2.5h-99q-9 0 -12 7l-59 100q-2 4 -2 7t3 5.5t8 2.5h119q9 0 14 -9l38 -99q1 -2 1 -5z" />
    <glyph glyph-name="eacute" unicode="&#xe9;" horiz-adv-x="532" 
d="M517 225q-3 -12 -15 -12h-295q-6 0 -6 -5q1 -15 6 -29q9 -21 31 -34t56 -13q60 0 101 41q4 5 9 5q4 0 7 -4l64 -88q3 -3 3 -7t-5 -9q-38 -38 -90.5 -58t-111.5 -20q-88 0 -145 39.5t-76 110.5q-9 33 -9 71q0 21 3 45q6 55 29 109q34 74 97.5 116.5t142.5 42.5
q64 0 111 -28.5t72.5 -79t26.5 -114.5q1 -30 -6 -79zM222 334q-3 -7 -7 -21q-2 -5 3 -5h138q5 0 5 5q0 7 -2 19q-4 25 -20.5 38t-43.5 13q-49 0 -73 -49zM245.5 582q-1.5 4 1.5 10l63 99q6 9 16 9h119q9 0 9 -6q0 -5 -4 -9l-83 -100q-6 -7 -15 -7h-99q-6 0 -7.5 4z" />
    <glyph glyph-name="ecircumflex" unicode="&#xea;" horiz-adv-x="532" 
d="M517 225q-3 -12 -15 -12h-295q-6 0 -6 -5q1 -15 6 -29q9 -21 31 -34t56 -13q60 0 101 41q4 5 9 5q4 0 7 -4l64 -88q3 -3 3 -7t-5 -9q-38 -38 -90.5 -58t-111.5 -20q-88 0 -145 39.5t-76 110.5q-9 33 -9 71q0 21 3 45q6 55 29 109q34 74 97.5 116.5t142.5 42.5
q64 0 111 -28.5t72.5 -79t26.5 -114.5q1 -30 -6 -79zM222 334q-3 -7 -7 -21q-2 -5 3 -5h138q5 0 5 5q0 7 -2 19q-4 25 -20.5 38t-43.5 13q-49 0 -73 -49zM153 579q0 4 3 8l83 105q5 8 14 8h155q10 0 13 -8l59 -105q2 -4 2 -6q0 -4 -3.5 -6.5t-8.5 -2.5h-104q-10 0 -13 8
l-26 53q-1 3 -3 3t-3 -3l-39 -53q-5 -8 -14 -8h-106q-9 0 -9 7z" />
    <glyph glyph-name="edieresis" unicode="&#xeb;" horiz-adv-x="532" 
d="M517 225q-3 -12 -15 -12h-295q-6 0 -6 -5q1 -15 6 -29q9 -21 31 -34t56 -13q60 0 101 41q4 5 9 5q4 0 7 -4l64 -88q3 -3 3 -7t-5 -9q-38 -38 -90.5 -58t-111.5 -20q-88 0 -145 39.5t-76 110.5q-9 33 -9 71q0 21 3 45q6 55 29 109q34 74 97.5 116.5t142.5 42.5
q64 0 111 -28.5t72.5 -79t26.5 -114.5q1 -30 -6 -79zM222 334q-3 -7 -7 -21q-2 -5 3 -5h138q5 0 5 5q0 7 -2 19q-4 25 -20.5 38t-43.5 13q-49 0 -73 -49zM362.5 592q-20.5 21 -20.5 54q0 43 28 71t68 28q34 0 54 -20t20 -54q0 -42 -28 -71t-67 -29q-34 0 -54.5 21z
M159.5 592q-20.5 21 -20.5 54q0 43 28 71t68 28q34 0 54 -20t20 -54q0 -42 -28 -71t-67 -29q-34 0 -54.5 21z" />
    <glyph glyph-name="igrave" unicode="&#xec;" horiz-adv-x="239" 
d="M23 3.5q-3 3.5 -2 8.5l60 493q1 5 5 8.5t9 3.5h137q5 0 8 -3.5t2 -8.5l-60 -493q-1 -5 -4.5 -8.5t-8.5 -3.5h-138q-5 0 -8 3.5zM232 587q0 -4 -3 -6.5t-8 -2.5h-99q-9 0 -12 7l-59 100q-2 4 -2 7t3 5.5t8 2.5h119q9 0 14 -9l38 -99q1 -2 1 -5z" />
    <glyph glyph-name="iacute" unicode="&#xed;" horiz-adv-x="239" 
d="M23 3.5q-3 3.5 -2 8.5l60 493q1 5 5 8.5t9 3.5h137q5 0 8 -3.5t2 -8.5l-60 -493q-1 -5 -4.5 -8.5t-8.5 -3.5h-138q-5 0 -8 3.5zM99.5 582q-1.5 4 1.5 10l63 99q6 9 16 9h119q9 0 9 -6q0 -5 -4 -9l-83 -100q-6 -7 -15 -7h-99q-6 0 -7.5 4z" />
    <glyph glyph-name="icircumflex" unicode="&#xee;" horiz-adv-x="239" 
d="M23 3.5q-3 3.5 -2 8.5l60 493q1 5 5 8.5t9 3.5h137q5 0 8 -3.5t2 -8.5l-60 -493q-1 -5 -4.5 -8.5t-8.5 -3.5h-138q-5 0 -8 3.5zM7 579q0 4 3 8l83 105q5 8 14 8h155q10 0 13 -8l59 -105q2 -4 2 -6q0 -4 -3.5 -6.5t-8.5 -2.5h-104q-10 0 -13 8l-26 53q-1 3 -3 3t-3 -3
l-39 -53q-5 -8 -14 -8h-106q-9 0 -9 7z" />
    <glyph glyph-name="idieresis" unicode="&#xef;" horiz-adv-x="239" 
d="M23 3.5q-3 3.5 -2 8.5l60 493q1 5 5 8.5t9 3.5h137q5 0 8 -3.5t2 -8.5l-60 -493q-1 -5 -4.5 -8.5t-8.5 -3.5h-138q-5 0 -8 3.5zM217.5 592q-20.5 21 -20.5 54q0 43 28 71t68 28q34 0 54 -20t20 -54q0 -42 -28 -71t-67 -29q-34 0 -54.5 21zM14.5 592q-20.5 21 -20.5 54
q0 43 28 71t68 28q34 0 54 -20t20 -54q0 -42 -28 -71t-67 -29q-34 0 -54.5 21z" />
    <glyph glyph-name="eth" unicode="&#xf0;" horiz-adv-x="540" 
d="M516 310q0 -34 -5 -79q-7 -59 -30 -103q-33 -61 -96.5 -98.5t-139.5 -37.5t-130 36.5t-72 99.5q-8 30 -8 60q0 20 3 42q7 56 30 102q17 32 42.5 56.5t57.5 38.5q21 11 54.5 17.5t65.5 6.5q33 0 51 -7q2 -1 3.5 0t0.5 4q-13 40 -27 66q0 2 -1.5 3t-3.5 0l-103 -26l-4 -1
q-8 0 -10 10l-7 62v2q0 9 11 13l67 17q5 2 3 7q-27 42 -63 84q-2 4 -2 7t3 5.5t8 2.5h144q9 0 13 -7l37 -59q1 -4 6 -2l86 22l4 1q8 0 10 -10l8 -62v-2q0 -9 -11 -13l-51 -13q-4 -1 -3 -7q25 -49 38.5 -91.5t17.5 -86.5q3 -28 3 -60zM349 248q0 20 -5 38q-14 45 -57 45
q-22 0 -40 -11.5t-30 -33.5q-13 -28 -17 -60q-1 -9 -1 -25q0 -23 4 -38q6 -22 21 -34.5t37 -12.5q43 0 67 47q21 32 21 85z" />
    <glyph glyph-name="ntilde" unicode="&#xf1;" 
d="M478.5 484q41.5 -41 41.5 -113q0 -8 -2 -30l-40 -329q-1 -5 -4.5 -8.5t-8.5 -3.5h-138q-5 0 -8 3.5t-2 8.5l36 293l1 12q0 30 -16 48t-42 18q-29 0 -50.5 -21.5t-25.5 -56.5l-36 -293q-1 -5 -4.5 -8.5t-8.5 -3.5h-138q-5 0 -8 3.5t-2 8.5l60 493q1 5 4.5 8.5t8.5 3.5h138
q5 0 8 -3.5t2 -8.5l-4 -37q-1 -4 1 -4.5t4 2.5q44 59 123 59q69 0 110.5 -41zM350.5 567q-13.5 4 -29.5 13q-18 9 -27.5 12t-19.5 3q-32 0 -54 -20q-11 -10 -17 -1l-42 54q-3 5 -3 8q0 4 3 8q20 30 50.5 48.5t66.5 18.5q19 0 33.5 -5t26 -10.5t14.5 -7.5q12 -7 24 -11.5
t23 -4.5q27 0 48 22q11 11 16 1l37 -56q5 -7 2 -13q-15 -27 -46 -45t-71 -18q-21 0 -34.5 4z" />
    <glyph glyph-name="ograve" unicode="&#xf2;" horiz-adv-x="537" 
d="M108 40q-55 48 -66 130q-3 21 -3 43q0 23 3 47q6 54 24 97q33 79 99 123.5t152 44.5q85 0 139 -44.5t67 -122.5q4 -23 4 -54q0 -28 -2 -42q-6 -49 -22 -88q-30 -84 -97 -133t-156 -49q-87 0 -142 48zM317 152.5q21 18.5 33 50.5q8 22 13 57q2 22 2 31q0 43 -16.5 67.5
t-50.5 24.5q-56 0 -81 -65q-10 -27 -13 -58q-3 -19 -3 -37q0 -40 17 -64.5t50 -24.5q28 0 49 18.5zM382 587q0 -4 -3 -6.5t-8 -2.5h-99q-9 0 -12 7l-59 100q-2 4 -2 7t3 5.5t8 2.5h119q9 0 14 -9l38 -99q1 -2 1 -5z" />
    <glyph glyph-name="oacute" unicode="&#xf3;" horiz-adv-x="537" 
d="M108 40q-55 48 -66 130q-3 21 -3 43q0 23 3 47q6 54 24 97q33 79 99 123.5t152 44.5q85 0 139 -44.5t67 -122.5q4 -23 4 -54q0 -28 -2 -42q-6 -49 -22 -88q-30 -84 -97 -133t-156 -49q-87 0 -142 48zM317 152.5q21 18.5 33 50.5q8 22 13 57q2 22 2 31q0 43 -16.5 67.5
t-50.5 24.5q-56 0 -81 -65q-10 -27 -13 -58q-3 -19 -3 -37q0 -40 17 -64.5t50 -24.5q28 0 49 18.5zM248.5 582q-1.5 4 1.5 10l63 99q6 9 16 9h119q9 0 9 -6q0 -5 -4 -9l-83 -100q-6 -7 -15 -7h-99q-6 0 -7.5 4z" />
    <glyph glyph-name="ocircumflex" unicode="&#xf4;" horiz-adv-x="537" 
d="M108 40q-55 48 -66 130q-3 21 -3 43q0 23 3 47q6 54 24 97q33 79 99 123.5t152 44.5q85 0 139 -44.5t67 -122.5q4 -23 4 -54q0 -28 -2 -42q-6 -49 -22 -88q-30 -84 -97 -133t-156 -49q-87 0 -142 48zM317 152.5q21 18.5 33 50.5q8 22 13 57q2 22 2 31q0 43 -16.5 67.5
t-50.5 24.5q-56 0 -81 -65q-10 -27 -13 -58q-3 -19 -3 -37q0 -40 17 -64.5t50 -24.5q28 0 49 18.5zM156 579q0 4 3 8l83 105q5 8 14 8h155q10 0 13 -8l59 -105q2 -4 2 -6q0 -4 -3.5 -6.5t-8.5 -2.5h-104q-10 0 -13 8l-26 53q-1 3 -3 3t-3 -3l-39 -53q-5 -8 -14 -8h-106
q-9 0 -9 7z" />
    <glyph glyph-name="otilde" unicode="&#xf5;" horiz-adv-x="537" 
d="M108 40q-55 48 -66 130q-3 21 -3 43q0 23 3 47q6 54 24 97q33 79 99 123.5t152 44.5q85 0 139 -44.5t67 -122.5q4 -23 4 -54q0 -28 -2 -42q-6 -49 -22 -88q-30 -84 -97 -133t-156 -49q-87 0 -142 48zM317 152.5q21 18.5 33 50.5q8 22 13 57q2 22 2 31q0 43 -16.5 67.5
t-50.5 24.5q-56 0 -81 -65q-10 -27 -13 -58q-3 -19 -3 -37q0 -40 17 -64.5t50 -24.5q28 0 49 18.5zM345.5 567q-13.5 4 -29.5 13q-18 9 -27.5 12t-19.5 3q-32 0 -54 -20q-11 -10 -17 -1l-42 54q-3 5 -3 8q0 4 3 8q20 30 50.5 48.5t66.5 18.5q19 0 33.5 -5t26 -10.5
t14.5 -7.5q12 -7 24 -11.5t23 -4.5q27 0 48 22q11 11 16 1l37 -56q5 -7 2 -13q-15 -27 -46 -45t-71 -18q-21 0 -34.5 4z" />
    <glyph glyph-name="odieresis" unicode="&#xf6;" horiz-adv-x="537" 
d="M108 40q-55 48 -66 130q-3 21 -3 43q0 23 3 47q6 54 24 97q33 79 99 123.5t152 44.5q85 0 139 -44.5t67 -122.5q4 -23 4 -54q0 -28 -2 -42q-6 -49 -22 -88q-30 -84 -97 -133t-156 -49q-87 0 -142 48zM317 152.5q21 18.5 33 50.5q8 22 13 57q2 22 2 31q0 43 -16.5 67.5
t-50.5 24.5q-56 0 -81 -65q-10 -27 -13 -58q-3 -19 -3 -37q0 -40 17 -64.5t50 -24.5q28 0 49 18.5zM366.5 592q-20.5 21 -20.5 54q0 43 28 71t68 28q34 0 54 -20t20 -54q0 -42 -28 -71t-67 -29q-34 0 -54.5 21zM163.5 592q-20.5 21 -20.5 54q0 43 28 71t68 28q34 0 54 -20
t20 -54q0 -42 -28 -71t-67 -29q-34 0 -54.5 21z" />
    <glyph glyph-name="divide" unicode="&#xf7;" horiz-adv-x="466" 
d="M217.5 428q-18.5 19 -18.5 47q0 33 25.5 58t57.5 25q27 0 45.5 -19t18.5 -46q0 -33 -25.5 -58.5t-56.5 -25.5q-28 0 -46.5 19zM37 239.5q-3 3.5 -2 8.5l15 117q1 5 4.5 8.5t8.5 3.5h394q5 0 8 -3.5t2 -8.5l-15 -117q0 -5 -4 -8.5t-9 -3.5h-394q-5 0 -8 3.5zM174.5 81
q-18.5 19 -18.5 47q0 33 25.5 58t57.5 25q27 0 45.5 -19t18.5 -46q0 -33 -25 -58.5t-57 -25.5q-28 0 -46.5 19z" />
    <glyph glyph-name="oslash" unicode="&#xf8;" horiz-adv-x="528" 
d="M501 416q14 -26 18 -58q4 -23 4 -54q0 -28 -2 -42q-6 -47 -21 -88q-31 -84 -98 -133t-156 -49q-44 0 -79 13q-3 1 -7 -3l-49 -61q-5 -5 -9 -5t-8 3l-87 77q-4 3 -4 7q0 6 4 10l50 61q2 4 1 7q-14 29 -20 69q-3 21 -3 43q0 23 3 47q6 54 24 97q33 79 99 123.5t152 44.5
q38 0 79 -12q4 -1 6 2l52 64q4 5 8.5 6t8.5 -3l88 -77q3 -3 3 -7q0 -5 -3 -10l-53 -65q-1 -2 -1 -7zM359 260q2 20 2 28q0 45 -16.5 70t-50.5 25q-28 0 -48.5 -17.5t-32.5 -47.5q-10 -27 -13 -58q-2 -11 -2 -33q0 -16 1 -24q3 -32 20 -50.5t45 -18.5t48.5 18.5t33.5 50.5
q8 22 13 57z" />
    <glyph glyph-name="ugrave" unicode="&#xf9;" 
d="M377.5 513.5q3.5 3.5 8.5 3.5h138q5 0 8 -3.5t2 -8.5l-60 -493q-1 -5 -4.5 -8.5t-8.5 -3.5h-138q-5 0 -8 3.5t-2 8.5l4 35q1 3 -1 4t-4 -2q-46 -57 -130 -57q-66 0 -105 38.5t-39 109.5q0 22 2 34l40 331q1 5 5 8.5t9 3.5h137q5 0 8 -3.5t2 -8.5l-36 -293l-1 -13
q0 -30 15 -47t42 -17t47 17t28 45l37 308q1 5 4.5 8.5zM378 587q0 -4 -3 -6.5t-8 -2.5h-99q-9 0 -12 7l-59 100q-2 4 -2 7t3 5.5t8 2.5h119q9 0 14 -9l38 -99q1 -2 1 -5z" />
    <glyph glyph-name="uacute" unicode="&#xfa;" 
d="M377.5 513.5q3.5 3.5 8.5 3.5h138q5 0 8 -3.5t2 -8.5l-60 -493q-1 -5 -4.5 -8.5t-8.5 -3.5h-138q-5 0 -8 3.5t-2 8.5l4 35q1 3 -1 4t-4 -2q-46 -57 -130 -57q-66 0 -105 38.5t-39 109.5q0 22 2 34l40 331q1 5 5 8.5t9 3.5h137q5 0 8 -3.5t2 -8.5l-36 -293l-1 -13
q0 -30 15 -47t42 -17t47 17t28 45l37 308q1 5 4.5 8.5zM245.5 582q-1.5 4 1.5 10l63 99q6 9 16 9h119q9 0 9 -6q0 -5 -4 -9l-83 -100q-6 -7 -15 -7h-99q-6 0 -7.5 4z" />
    <glyph glyph-name="ucircumflex" unicode="&#xfb;" 
d="M377.5 513.5q3.5 3.5 8.5 3.5h138q5 0 8 -3.5t2 -8.5l-60 -493q-1 -5 -4.5 -8.5t-8.5 -3.5h-138q-5 0 -8 3.5t-2 8.5l4 35q1 3 -1 4t-4 -2q-46 -57 -130 -57q-66 0 -105 38.5t-39 109.5q0 22 2 34l40 331q1 5 5 8.5t9 3.5h137q5 0 8 -3.5t2 -8.5l-36 -293l-1 -13
q0 -30 15 -47t42 -17t47 17t28 45l37 308q1 5 4.5 8.5zM153 579q0 4 3 8l83 105q5 8 14 8h155q10 0 13 -8l59 -105q2 -4 2 -6q0 -4 -3.5 -6.5t-8.5 -2.5h-104q-10 0 -13 8l-26 53q-1 3 -3 3t-3 -3l-39 -53q-5 -8 -14 -8h-106q-9 0 -9 7z" />
    <glyph glyph-name="udieresis" unicode="&#xfc;" 
d="M377.5 513.5q3.5 3.5 8.5 3.5h138q5 0 8 -3.5t2 -8.5l-60 -493q-1 -5 -4.5 -8.5t-8.5 -3.5h-138q-5 0 -8 3.5t-2 8.5l4 35q1 3 -1 4t-4 -2q-46 -57 -130 -57q-66 0 -105 38.5t-39 109.5q0 22 2 34l40 331q1 5 5 8.5t9 3.5h137q5 0 8 -3.5t2 -8.5l-36 -293l-1 -13
q0 -30 15 -47t42 -17t47 17t28 45l37 308q1 5 4.5 8.5zM362.5 592q-20.5 21 -20.5 54q0 43 28 71t68 28q34 0 54 -20t20 -54q0 -42 -28 -71t-67 -29q-34 0 -54.5 21zM159.5 592q-20.5 21 -20.5 54q0 43 28 71t68 28q34 0 54 -20t20 -54q0 -42 -28 -71t-67 -29
q-34 0 -54.5 21z" />
    <glyph glyph-name="yacute" unicode="&#xfd;" horiz-adv-x="505" 
d="M-4 -187l14 112q1 5 4.5 8.5t7.5 3.5q62 0 90.5 11.5t39.5 48.5q1 2 1 6l-95 501v3q0 5 3 8t8 3h147q10 0 11 -10l31 -296q0 -4 2.5 -4t3.5 4l103 296q4 10 14 10h143q6 0 8.5 -3.5t-0.5 -10.5l-227 -514q-34 -75 -65 -113.5t-84 -57t-147 -18.5h-7q-6 0 -6 12z
M233.5 593q-1.5 4 1.5 10l63 99q6 9 16 9h119q9 0 9 -6q0 -5 -4 -9l-83 -100q-6 -7 -15 -7h-99q-6 0 -7.5 4z" />
    <glyph glyph-name="thorn" unicode="&#xfe;" horiz-adv-x="538" 
d="M526 320q0 -18 -4 -60q-7 -60 -28 -114q-29 -71 -85.5 -112.5t-120.5 -41.5q-63 0 -96 39q-1 3 -3.5 2t-2.5 -4l-27 -217q-1 -5 -4.5 -8.5t-8.5 -3.5h-138q-5 0 -8 3.5t-2 8.5l108 876q1 5 4.5 8.5t8.5 3.5h138q5 0 8 -3.5t2 -8.5l-24 -193q0 -7 6 -3q38 33 98 33
q68 0 112.5 -38.5t58.5 -98.5q8 -29 8 -68zM353 258q2 26 2 35q0 27 -6 45q-5 21 -20 33t-39 12q-20 0 -37 -10.5t-27 -27.5q-2 -2 -2 -6l-20 -161q0 -4 1 -6q6 -17 20 -27.5t35 -10.5q23 0 41.5 12.5t27.5 32.5q17 28 24 79z" />
    <glyph glyph-name="ydieresis" unicode="&#xff;" horiz-adv-x="505" 
d="M-4 -187l14 112q1 5 4.5 8.5t7.5 3.5q62 0 90.5 11.5t39.5 48.5q1 2 1 6l-95 501v3q0 5 3 8t8 3h147q10 0 11 -10l31 -296q0 -4 2.5 -4t3.5 4l103 296q4 10 14 10h143q6 0 8.5 -3.5t-0.5 -10.5l-227 -514q-34 -75 -65 -113.5t-84 -57t-147 -18.5h-7q-6 0 -6 12z
M350.5 603q-20.5 21 -20.5 54q0 43 28 71t68 28q34 0 54 -20t20 -54q0 -42 -28 -71t-67 -29q-34 0 -54.5 21zM147.5 603q-20.5 21 -20.5 54q0 43 28 71t68 28q34 0 54 -20t20 -54q0 -42 -28 -71t-67 -29q-34 0 -54.5 21z" />
    <glyph glyph-name="Amacron" unicode="&#x100;" horiz-adv-x="673" 
d="M463 3q-3 3 -4 7l-14 89q-2 4 -5 4h-221q-3 0 -5 -4l-36 -89q-5 -10 -15 -10h-148q-6 0 -8.5 3.5t0.5 10.5l290 676q5 10 14 10h183q9 0 12 -10l125 -676v-4q0 -10 -11 -10h-149q-5 0 -8 3zM273 231h144q5 0 5 6l-42 257q-1 4 -3 3.5t-3 -3.5l-104 -257q-3 -6 3 -6z
M265 758.5q-3 3.5 -2 8.5l11 87q1 5 4.5 8.5t8.5 3.5h271q5 0 8 -3.5t2 -8.5l-11 -87q-1 -5 -4.5 -8.5t-8.5 -3.5h-271q-5 0 -8 3.5z" />
    <glyph glyph-name="amacron" unicode="&#x101;" horiz-adv-x="518" 
d="M398.5 513.5q3.5 3.5 8.5 3.5h138q5 0 8 -3.5t2 -8.5l-61 -493q-1 -5 -4.5 -8.5t-8.5 -3.5h-138q-5 0 -8 3.5t-2 8.5l5 38q0 3 -1.5 4t-4.5 -2q-47 -60 -123 -60q-65 0 -110.5 41.5t-57.5 112.5q-4 21 -4 48q0 28 5 66q8 74 35 128q28 60 82 98.5t122 38.5q74 0 103 -51
q2 -3 4 -2t2 4l4 29q1 5 4.5 8.5zM363 258q3 24 3 41q0 23 -6 41q-6 20 -20.5 31.5t-36.5 11.5q-23 0 -41 -12t-29 -33q-16 -27 -23 -80q-2 -14 -2 -38q0 -26 5 -41q6 -20 21.5 -32.5t38.5 -12.5q44 0 68 46q17 28 22 78zM167 575.5q-3 3.5 -2 8.5l11 87q1 5 4.5 8.5
t8.5 3.5h271q5 0 8 -3.5t2 -8.5l-11 -87q-1 -5 -4.5 -8.5t-8.5 -3.5h-271q-5 0 -8 3.5z" />
    <glyph glyph-name="Abreve" unicode="&#x102;" horiz-adv-x="673" 
d="M463 3q-3 3 -4 7l-14 89q-2 4 -5 4h-221q-3 0 -5 -4l-36 -89q-5 -10 -15 -10h-148q-6 0 -8.5 3.5t0.5 10.5l290 676q5 10 14 10h183q9 0 12 -10l125 -676v-4q0 -10 -11 -10h-149q-5 0 -8 3zM273 231h144q5 0 5 6l-42 257q-1 4 -3 3.5t-3 -3.5l-104 -257q-3 -6 3 -6z
M297.5 773q-41.5 34 -41.5 87q0 9 2.5 13t9.5 4h80q10 0 10 -11q2 -20 17.5 -31.5t40.5 -11.5t43.5 11.5t25.5 31.5q3 11 13 11h78q5 0 8 -2.5t2 -7.5q-11 -56 -61.5 -92t-119.5 -36q-66 0 -107.5 34z" />
    <glyph glyph-name="abreve" unicode="&#x103;" horiz-adv-x="518" 
d="M398.5 513.5q3.5 3.5 8.5 3.5h138q5 0 8 -3.5t2 -8.5l-61 -493q-1 -5 -4.5 -8.5t-8.5 -3.5h-138q-5 0 -8 3.5t-2 8.5l5 38q0 3 -1.5 4t-4.5 -2q-47 -60 -123 -60q-65 0 -110.5 41.5t-57.5 112.5q-4 21 -4 48q0 28 5 66q8 74 35 128q28 60 82 98.5t122 38.5q74 0 103 -51
q2 -3 4 -2t2 4l4 29q1 5 4.5 8.5zM363 258q3 24 3 41q0 23 -6 41q-6 20 -20.5 31.5t-36.5 11.5q-23 0 -41 -12t-29 -33q-16 -27 -23 -80q-2 -14 -2 -38q0 -26 5 -41q6 -20 21.5 -32.5t38.5 -12.5q44 0 68 46q17 28 22 78zM199.5 590q-41.5 34 -41.5 87q0 9 2.5 13t9.5 4h80
q10 0 10 -11q2 -20 17.5 -31.5t40.5 -11.5t43.5 11.5t25.5 31.5q3 11 13 11h78q5 0 8 -2.5t2 -7.5q-11 -56 -61.5 -92t-119.5 -36q-66 0 -107.5 34z" />
    <glyph glyph-name="Aogonek" unicode="&#x104;" horiz-adv-x="673" 
d="M463 3q-3 3 -4 7l-14 89q-2 4 -5 4h-221q-3 0 -5 -4l-36 -89q-5 -10 -15 -10h-148q-6 0 -8.5 3.5t0.5 10.5l290 676q5 10 14 10h183q9 0 12 -10l125 -676v-4q0 -10 -11 -10h-149q-5 0 -8 3zM273 231h144q5 0 5 6l-42 257q-1 4 -3 3.5t-3 -3.5l-104 -257q-3 -6 3 -6z
M607 -182q-33 -13 -69 -13q-38 0 -62.5 18.5t-24.5 61.5q0 57 66 110q8 5 15 5h78q9 0 9 -5q0 -4 -7 -10q-28 -19 -41.5 -37t-11.5 -32q1 -9 8 -14t17 -5q5 0 19 4q2 1 6 1q7 0 7 -9l1 -61q0 -11 -10 -14z" />
    <glyph glyph-name="aogonek" unicode="&#x105;" horiz-adv-x="569" 
d="M478 -98q7 0 7 -9l2 -61q0 -11 -10 -14q-33 -13 -70 -13t-62 18.5t-25 60.5q0 56 66 110q4 2 3 4t-4 2h-27q-5 0 -8 3.5t-2 8.5l4 38q1 3 -1 4t-4 -2q-47 -60 -124 -60q-64 0 -110.5 41.5t-57.5 112.5q-4 38 -4 56t4 58q10 75 35 128q29 60 83 98.5t122 38.5
q75 0 104 -51q1 -3 3 -2t3 4l3 29q1 5 4.5 8.5t8.5 3.5h138q5 0 8 -3.5t2 -8.5l-60 -493q-2 -12 -4 -12q-3 0 -5 -2q-71 -44 -71 -77q0 -12 6.5 -18t18.5 -6q9 0 18 4q2 1 6 1zM378 258q3 21 3 38q0 23 -7 44q-5 20 -20 31.5t-37 11.5q-23 0 -41 -12t-29 -33
q-18 -30 -23 -80q-3 -21 -3 -36q0 -22 7 -43q5 -20 20.5 -32.5t37.5 -12.5q45 0 69 46q18 31 23 78z" />
    <glyph glyph-name="Cacute" unicode="&#x106;" horiz-adv-x="590" 
d="M107 50q-62 58 -62 156q0 24 2 37l27 216q9 74 48 130.5t102 87.5t140 31q108 0 170.5 -54.5t62.5 -147.5q0 -10 -2 -34q0 -4 -4 -7.5t-9 -3.5l-139 -9q-11 0 -10 11q1 6 1 17q0 40 -23.5 63t-63.5 23q-44 0 -75 -28.5t-37 -74.5l-28 -227q-1 -5 -1 -15q0 -40 24 -63.5
t64 -23.5q45 0 75.5 28t35.5 74q2 11 13 11l137 -7q11 0 11 -10q-9 -71 -48 -125t-101.5 -83.5t-140.5 -29.5q-107 0 -169 58zM299.5 765q-1.5 4 1.5 10l63 99q6 9 16 9h119q9 0 9 -6q0 -5 -4 -9l-83 -100q-6 -7 -15 -7h-99q-6 0 -7.5 4z" />
    <glyph glyph-name="cacute" unicode="&#x107;" horiz-adv-x="527" 
d="M117.5 33q-54.5 41 -71.5 113q-7 28 -7 64q0 26 3 51q8 68 32 115q34 70 98.5 109.5t144.5 39.5t136.5 -41t69.5 -104q4 -16 4 -39q-2 -12 -12 -13l-138 -21h-2q-9 0 -10 10q0 6 -1 9q0 7 -3 14q-5 19 -22 31t-41 12q-51 0 -73 -47q-14 -28 -20 -76q-3 -21 -3 -39
q0 -21 3 -36q13 -51 63 -51q25 0 45 13.5t31 38.5l2 6l1 4q4 12 15 10l133 -22q11 -2 8 -13q-4 -18 -10 -31q-31 -70 -96.5 -109t-145.5 -39q-79 0 -133.5 41zM248.5 582q-1.5 4 1.5 10l63 99q6 9 16 9h119q9 0 9 -6q0 -5 -4 -9l-83 -100q-6 -7 -15 -7h-99q-6 0 -7.5 4z" />
    <glyph glyph-name="Ccircumflex" unicode="&#x108;" horiz-adv-x="590" 
d="M107 50q-62 58 -62 156q0 24 2 37l27 216q9 74 48 130.5t102 87.5t140 31q108 0 170.5 -54.5t62.5 -147.5q0 -10 -2 -34q0 -4 -4 -7.5t-9 -3.5l-139 -9q-11 0 -10 11q1 6 1 17q0 40 -23.5 63t-63.5 23q-44 0 -75 -28.5t-37 -74.5l-28 -227q-1 -5 -1 -15q0 -40 24 -63.5
t64 -23.5q45 0 75.5 28t35.5 74q2 11 13 11l137 -7q11 0 11 -10q-9 -71 -48 -125t-101.5 -83.5t-140.5 -29.5q-107 0 -169 58zM207 762q0 4 3 8l83 105q5 8 14 8h155q10 0 13 -8l59 -105q2 -4 2 -6q0 -4 -3.5 -6.5t-8.5 -2.5h-104q-10 0 -13 8l-26 53q-1 3 -3 3t-3 -3
l-39 -53q-5 -8 -14 -8h-106q-9 0 -9 7z" />
    <glyph glyph-name="ccircumflex" unicode="&#x109;" horiz-adv-x="527" 
d="M117.5 33q-54.5 41 -71.5 113q-7 28 -7 64q0 26 3 51q8 68 32 115q34 70 98.5 109.5t144.5 39.5t136.5 -41t69.5 -104q4 -16 4 -39q-2 -12 -12 -13l-138 -21h-2q-9 0 -10 10q0 6 -1 9q0 7 -3 14q-5 19 -22 31t-41 12q-51 0 -73 -47q-14 -28 -20 -76q-3 -21 -3 -39
q0 -21 3 -36q13 -51 63 -51q25 0 45 13.5t31 38.5l2 6l1 4q4 12 15 10l133 -22q11 -2 8 -13q-4 -18 -10 -31q-31 -70 -96.5 -109t-145.5 -39q-79 0 -133.5 41zM156 579q0 4 3 8l83 105q5 8 14 8h155q10 0 13 -8l59 -105q2 -4 2 -6q0 -4 -3.5 -6.5t-8.5 -2.5h-104
q-10 0 -13 8l-26 53q-1 3 -3 3t-3 -3l-39 -53q-5 -8 -14 -8h-106q-9 0 -9 7z" />
    <glyph glyph-name="Cdotaccent" unicode="&#x10a;" horiz-adv-x="590" 
d="M107 50q-62 58 -62 156q0 24 2 37l27 216q9 74 48 130.5t102 87.5t140 31q108 0 170.5 -54.5t62.5 -147.5q0 -10 -2 -34q0 -4 -4 -7.5t-9 -3.5l-139 -9q-11 0 -10 11q1 6 1 17q0 40 -23.5 63t-63.5 23q-44 0 -75 -28.5t-37 -74.5l-28 -227q-1 -5 -1 -15q0 -40 24 -63.5
t64 -23.5q45 0 75.5 28t35.5 74q2 11 13 11l137 -7q11 0 11 -10q-9 -71 -48 -125t-101.5 -83.5t-140.5 -29.5q-107 0 -169 58zM315.5 767q-20.5 21 -20.5 54q0 43 28 71t68 28q34 0 54 -20t20 -54q0 -42 -28 -71t-67 -29q-34 0 -54.5 21z" />
    <glyph glyph-name="cdotaccent" unicode="&#x10b;" horiz-adv-x="527" 
d="M117.5 33q-54.5 41 -71.5 113q-7 28 -7 64q0 26 3 51q8 68 32 115q34 70 98.5 109.5t144.5 39.5t136.5 -41t69.5 -104q4 -16 4 -39q-2 -12 -12 -13l-138 -21h-2q-9 0 -10 10q0 6 -1 9q0 7 -3 14q-5 19 -22 31t-41 12q-51 0 -73 -47q-14 -28 -20 -76q-3 -21 -3 -39
q0 -21 3 -36q13 -51 63 -51q25 0 45 13.5t31 38.5l2 6l1 4q4 12 15 10l133 -22q11 -2 8 -13q-4 -18 -10 -31q-31 -70 -96.5 -109t-145.5 -39q-79 0 -133.5 41zM263.5 584q-20.5 21 -20.5 54q0 43 28 71t68 28q34 0 54 -20t20 -54q0 -42 -28 -71t-67 -29q-34 0 -54.5 21z" />
    <glyph glyph-name="Ccaron" unicode="&#x10c;" horiz-adv-x="590" 
d="M107 50q-62 58 -62 156q0 24 2 37l27 216q9 74 48 130.5t102 87.5t140 31q108 0 170.5 -54.5t62.5 -147.5q0 -10 -2 -34q0 -4 -4 -7.5t-9 -3.5l-139 -9q-11 0 -10 11q1 6 1 17q0 40 -23.5 63t-63.5 23q-44 0 -75 -28.5t-37 -74.5l-28 -227q-1 -5 -1 -15q0 -40 24 -63.5
t64 -23.5q45 0 75.5 28t35.5 74q2 11 13 11l137 -7q11 0 11 -10q-9 -71 -48 -125t-101.5 -83.5t-140.5 -29.5q-107 0 -169 58zM229 873q0 10 11 10h105q10 0 13 -8l25 -54q2 -3 4 -3t3 3l39 54q4 8 14 8h105q9 0 9 -7q0 -3 -3 -8l-85 -105q-5 -8 -14 -8h-155q-10 0 -13 8
l-57 105q-1 2 -1 5z" />
    <glyph glyph-name="ccaron" unicode="&#x10d;" horiz-adv-x="527" 
d="M117.5 33q-54.5 41 -71.5 113q-7 28 -7 64q0 26 3 51q8 68 32 115q34 70 98.5 109.5t144.5 39.5t136.5 -41t69.5 -104q4 -16 4 -39q-2 -12 -12 -13l-138 -21h-2q-9 0 -10 10q0 6 -1 9q0 7 -3 14q-5 19 -22 31t-41 12q-51 0 -73 -47q-14 -28 -20 -76q-3 -21 -3 -39
q0 -21 3 -36q13 -51 63 -51q25 0 45 13.5t31 38.5l2 6l1 4q4 12 15 10l133 -22q11 -2 8 -13q-4 -18 -10 -31q-31 -70 -96.5 -109t-145.5 -39q-79 0 -133.5 41zM178 690q0 10 11 10h105q10 0 13 -8l25 -54q2 -3 4 -3t3 3l39 54q4 8 14 8h105q9 0 9 -7q0 -3 -3 -8l-85 -105
q-5 -8 -14 -8h-155q-10 0 -13 8l-57 105q-1 2 -1 5z" />
    <glyph glyph-name="Dcaron" unicode="&#x10e;" horiz-adv-x="599" 
d="M32 3.5q-3 3.5 -2 8.5l83 676q0 5 4 8.5t9 3.5h247q106 0 168.5 -51.5t62.5 -138.5q0 -9 -2 -29l-32 -262q-8 -65 -46 -115t-99.5 -77t-137.5 -27h-247q-5 0 -8 3.5zM211 142h100q39 0 67 28.5t35 76.5l25 206q1 7 1 19q0 40 -21 63t-57 23h-98q-6 0 -6 -5l-50 -406
q0 -5 4 -5zM219 872q0 10 11 10h105q10 0 13 -8l25 -54q2 -3 4 -3t3 3l39 54q4 8 14 8h105q9 0 9 -7q0 -3 -3 -8l-85 -105q-5 -8 -14 -8h-155q-10 0 -13 8l-57 105q-1 2 -1 5z" />
    <glyph glyph-name="dcaron" unicode="&#x10f;" horiz-adv-x="556" 
d="M420.5 696.5q3.5 3.5 8.5 3.5h138q5 0 8 -3.5t2 -8.5l-83 -676q-1 -5 -4.5 -8.5t-8.5 -3.5h-138q-5 0 -8 3.5t-2 8.5l4 33q1 3 -1 3.5t-4 -1.5q-47 -55 -119 -55q-66 0 -111.5 41t-58.5 112q-5 32 -5 60q0 18 4 56q8 70 36 126q29 62 83 100t124 38q69 0 100 -47
q1 -3 3 -2t3 4l25 208q1 5 4.5 8.5zM363 258q3 20 3 36q0 34 -10 54q-16 35 -53 35q-40 0 -63 -36q-23 -32 -31 -89q-2 -22 -2 -32q0 -31 9 -54q17 -38 57 -38q39 0 63 39q21 31 27 85zM576.5 582q-1.5 4 1.5 10l63 99q6 9 16 9h119q9 0 9 -6q0 -5 -4 -9l-83 -100
q-6 -7 -15 -7h-99q-6 0 -7.5 4z" />
    <glyph glyph-name="Dcroat" unicode="&#x110;" horiz-adv-x="644" 
d="M587 648.5q62 -51.5 62 -138.5q0 -9 -2 -29l-32 -262q-8 -65 -46 -115t-99 -77t-137 -27h-248q-5 0 -8 3.5t-2 8.5l35 287q2 5 -4 5h-29q-5 0 -8 3.5t-2 8.5l11 87q0 5 4 8.5t9 3.5h29q5 0 5 5l33 268q1 5 4.5 8.5t8.5 3.5h248q106 0 168 -51.5zM482 453q1 7 1 20
q0 39 -20.5 62t-56.5 23h-98q-5 0 -5 -5l-17 -133q0 -5 5 -5h64q5 0 8 -3.5t2 -8.5l-11 -87q-1 -5 -4.5 -8.5t-8.5 -3.5h-64q-4 0 -6 -5l-18 -152q-2 -5 4 -5h99q38 0 66 28.5t35 76.5z" />
    <glyph glyph-name="dcroat" unicode="&#x111;" horiz-adv-x="556" 
d="M611 647.5q3 -3.5 2 -8.5l-9 -74q-1 -5 -4.5 -8.5t-8.5 -3.5h-25q-6 0 -6 -5l-66 -536q-1 -5 -4.5 -8.5t-8.5 -3.5h-138q-5 0 -8 3.5t-2 8.5l4 33q1 3 -1 3.5t-4 -1.5q-47 -55 -119 -55q-66 0 -111.5 41t-58.5 112q-5 32 -5 60q0 18 4 56q8 70 36 126q29 62 83 100
t124 38q69 0 100 -47q1 -3 3 -2t3 4l8 68q0 5 -4 5h-137q-5 0 -8 3.5t-2 8.5l9 74q1 5 4.5 8.5t8.5 3.5h137q5 0 5 5l4 32q1 5 4.5 8.5t8.5 3.5h138q5 0 8 -3.5t2 -8.5l-4 -32q0 -5 5 -5h25q5 0 8 -3.5zM363 258q3 20 3 36q0 34 -10 54q-16 35 -53 35q-40 0 -63 -36
q-23 -32 -31 -89q-2 -22 -2 -32q0 -31 9 -54q17 -38 57 -38q39 0 63 39q21 31 27 85z" />
    <glyph glyph-name="Emacron" unicode="&#x112;" horiz-adv-x="559" 
d="M575.5 561.5q-3.5 -3.5 -8.5 -3.5h-304q-6 0 -6 -5l-15 -123q0 -5 4 -5h195q5 0 8 -3.5t2 -8.5l-14 -117q-1 -5 -4.5 -8.5t-8.5 -3.5h-195q-4 0 -6 -5l-16 -132q0 -5 4 -5h305q5 0 8 -3.5t2 -8.5l-14 -118q-1 -5 -4.5 -8.5t-8.5 -3.5h-459q-5 0 -8 3.5t-2 8.5l83 676
q0 5 4 8.5t9 3.5h459q5 0 8 -3.5t2 -8.5l-15 -118q-1 -5 -4.5 -8.5zM217 758.5q-3 3.5 -2 8.5l11 87q1 5 4.5 8.5t8.5 3.5h271q5 0 8 -3.5t2 -8.5l-11 -87q-1 -5 -4.5 -8.5t-8.5 -3.5h-271q-5 0 -8 3.5z" />
    <glyph glyph-name="emacron" unicode="&#x113;" horiz-adv-x="532" 
d="M517 225q-3 -12 -15 -12h-295q-6 0 -6 -5q1 -15 6 -29q9 -21 31 -34t56 -13q60 0 101 41q4 5 9 5q4 0 7 -4l64 -88q3 -3 3 -7t-5 -9q-38 -38 -90.5 -58t-111.5 -20q-88 0 -145 39.5t-76 110.5q-9 33 -9 71q0 21 3 45q6 55 29 109q34 74 97.5 116.5t142.5 42.5
q64 0 111 -28.5t72.5 -79t26.5 -114.5q1 -30 -6 -79zM222 334q-3 -7 -7 -21q-2 -5 3 -5h138q5 0 5 5q0 7 -2 19q-4 25 -20.5 38t-43.5 13q-49 0 -73 -49zM175 587.5q-3 3.5 -2 8.5l10 87q1 5 5 8.5t9 3.5h270q5 0 8 -3.5t2 -8.5l-10 -87q-1 -5 -4.5 -8.5t-8.5 -3.5h-271
q-5 0 -8 3.5z" />
    <glyph glyph-name="Edotaccent" unicode="&#x116;" horiz-adv-x="559" 
d="M575.5 561.5q-3.5 -3.5 -8.5 -3.5h-304q-6 0 -6 -5l-15 -123q0 -5 4 -5h195q5 0 8 -3.5t2 -8.5l-14 -117q-1 -5 -4.5 -8.5t-8.5 -3.5h-195q-4 0 -6 -5l-16 -132q0 -5 4 -5h305q5 0 8 -3.5t2 -8.5l-14 -118q-1 -5 -4.5 -8.5t-8.5 -3.5h-459q-5 0 -8 3.5t-2 8.5l83 676
q0 5 4 8.5t9 3.5h459q5 0 8 -3.5t2 -8.5l-15 -118q-1 -5 -4.5 -8.5zM304.5 767q-20.5 21 -20.5 54q0 43 28 71t68 28q34 0 54 -20t20 -54q0 -42 -28 -71t-67 -29q-34 0 -54.5 21z" />
    <glyph glyph-name="edotaccent" unicode="&#x117;" horiz-adv-x="532" 
d="M517 225q-3 -12 -15 -12h-295q-6 0 -6 -5q1 -15 6 -29q9 -21 31 -34t56 -13q60 0 101 41q4 5 9 5q4 0 7 -4l64 -88q3 -3 3 -7t-5 -9q-38 -38 -90.5 -58t-111.5 -20q-88 0 -145 39.5t-76 110.5q-9 33 -9 71q0 21 3 45q6 55 29 109q34 74 97.5 116.5t142.5 42.5
q64 0 111 -28.5t72.5 -79t26.5 -114.5q1 -30 -6 -79zM222 334q-3 -7 -7 -21q-2 -5 3 -5h138q5 0 5 5q0 7 -2 19q-4 25 -20.5 38t-43.5 13q-49 0 -73 -49zM260.5 584q-20.5 21 -20.5 54q0 43 28 71t68 28q34 0 54 -20t20 -54q0 -42 -28 -71t-67 -29q-34 0 -54.5 21z" />
    <glyph glyph-name="Eogonek" unicode="&#x118;" horiz-adv-x="559" 
d="M575.5 561.5q-3.5 -3.5 -8.5 -3.5h-304q-6 0 -6 -5l-15 -123q0 -5 4 -5h195q5 0 8 -3.5t2 -8.5l-14 -117q-1 -5 -4.5 -8.5t-8.5 -3.5h-195q-4 0 -6 -5l-16 -132q0 -5 4 -5h305q5 0 8 -3.5t2 -8.5l-14 -118q-1 -5 -4.5 -8.5t-8.5 -3.5h-174q-2 0 -6 -2
q-25 -18 -37.5 -35.5t-10.5 -30.5q2 -9 9 -14t17 -5q6 0 18 4q2 1 6 1q7 0 7 -9l1 -61q0 -11 -10 -14q-32 -13 -68 -13q-37 0 -62.5 18.5t-25.5 59.5q0 48 48 95q2 2 1 4t-3 2h-169q-5 0 -8 3.5t-2 8.5l83 676q0 5 4 8.5t9 3.5h459q5 0 8 -3.5t2 -8.5l-15 -118
q-1 -5 -4.5 -8.5z" />
    <glyph glyph-name="eogonek" unicode="&#x119;" horiz-adv-x="532" 
d="M517 225q-3 -12 -15 -12h-295q-6 0 -6 -5q1 -15 6 -29q9 -21 31 -34t56 -13q60 0 101 41q4 5 9 5q4 0 7 -4l64 -88q3 -3 3 -7t-5 -9q-61 -61 -155 -75q-2 0 -6 -2q-28 -19 -42.5 -37.5t-12.5 -33.5q2 -9 9 -14t17 -5q6 0 18 4q2 1 6 1q9 0 7 -9l1 -61q0 -11 -10 -14
q-32 -13 -68 -13q-38 0 -63 18.5t-25 61.5q0 53 57 101q2 2 2 4t-3 2q-60 13 -100 50t-55 94q-9 33 -9 71q0 21 3 45q6 55 29 109q34 74 97.5 116.5t142.5 42.5q64 0 111 -28.5t72.5 -79t26.5 -114.5q1 -30 -6 -79zM222 334q-3 -7 -7 -21q-2 -5 3 -5h138q5 0 5 5q0 7 -2 19
q-4 25 -20.5 38t-43.5 13q-49 0 -73 -49z" />
    <glyph glyph-name="Ecaron" unicode="&#x11a;" horiz-adv-x="559" 
d="M575.5 561.5q-3.5 -3.5 -8.5 -3.5h-304q-6 0 -6 -5l-15 -123q0 -5 4 -5h195q5 0 8 -3.5t2 -8.5l-14 -117q-1 -5 -4.5 -8.5t-8.5 -3.5h-195q-4 0 -6 -5l-16 -132q0 -5 4 -5h305q5 0 8 -3.5t2 -8.5l-14 -118q-1 -5 -4.5 -8.5t-8.5 -3.5h-459q-5 0 -8 3.5t-2 8.5l83 676
q0 5 4 8.5t9 3.5h459q5 0 8 -3.5t2 -8.5l-15 -118q-1 -5 -4.5 -8.5zM219 873q0 10 11 10h105q10 0 13 -8l25 -54q2 -3 4 -3t3 3l39 54q4 8 14 8h105q9 0 9 -7q0 -3 -3 -8l-85 -105q-5 -8 -14 -8h-155q-10 0 -13 8l-57 105q-1 2 -1 5z" />
    <glyph glyph-name="ecaron" unicode="&#x11b;" horiz-adv-x="532" 
d="M517 225q-3 -12 -15 -12h-295q-6 0 -6 -5q1 -15 6 -29q9 -21 31 -34t56 -13q60 0 101 41q4 5 9 5q4 0 7 -4l64 -88q3 -3 3 -7t-5 -9q-38 -38 -90.5 -58t-111.5 -20q-88 0 -145 39.5t-76 110.5q-9 33 -9 71q0 21 3 45q6 55 29 109q34 74 97.5 116.5t142.5 42.5
q64 0 111 -28.5t72.5 -79t26.5 -114.5q1 -30 -6 -79zM222 334q-3 -7 -7 -21q-2 -5 3 -5h138q5 0 5 5q0 7 -2 19q-4 25 -20.5 38t-43.5 13q-49 0 -73 -49zM175 690q0 10 11 10h105q10 0 13 -8l25 -54q2 -3 4 -3t3 3l39 54q4 8 14 8h105q9 0 9 -7q0 -3 -3 -8l-85 -105
q-5 -8 -14 -8h-155q-10 0 -13 8l-57 105q-1 2 -1 5z" />
    <glyph glyph-name="Gcircumflex" unicode="&#x11c;" horiz-adv-x="593" 
d="M108 51q-62 59 -62 158q0 26 2 39l25 205q9 76 48.5 133.5t102.5 89.5t140 32q71 0 124 -26.5t81.5 -72.5t28.5 -103q0 -9 -2 -29l-1 -5q-1 -5 -4.5 -8.5t-8.5 -3.5h-138q-5 0 -8 3.5t-2 8.5q1 4 1 12q0 35 -23 58.5t-65 23.5q-44 0 -75 -30t-37 -78l-27 -215
q-1 -5 -1 -16q0 -41 26.5 -66.5t67.5 -25.5q43 0 72 23.5t34 65.5l3 28q2 5 -4 5h-97q-5 0 -8 3.5t-2 8.5l13 110q1 5 4.5 8.5t8.5 3.5h249q5 0 8 -3.5t2 -8.5l-17 -136q-9 -75 -48 -132t-102 -88t-141 -31q-106 0 -168 59zM208 769q0 4 3 8l83 105q5 8 14 8h155q10 0 13 -8
l59 -105q2 -4 2 -6q0 -4 -3.5 -6.5t-8.5 -2.5h-104q-10 0 -13 8l-26 53q-1 3 -3 3t-3 -3l-39 -53q-5 -8 -14 -8h-106q-9 0 -9 7z" />
    <glyph glyph-name="gcircumflex" unicode="&#x11d;" horiz-adv-x="546" 
d="M392.5 513.5q3.5 3.5 8.5 3.5h138q5 0 8 -3.5t2 -8.5l-55 -447q-17 -137 -100.5 -196t-201.5 -59q-45 0 -91 8q-9 1 -8 13l20 124q1 13 15 10q38 -9 73 -9q55 0 90 26t42 82l-8 -7q-39 -36 -105 -36q-64 0 -114 29t-64 102q-5 23 -5 56q0 24 4 62q9 74 34 126
q30 62 83.5 99t118.5 37q71 0 102 -44q2 -2 4 -1.5t2 3.5l3 22q1 5 4.5 8.5zM358 264q4 34 4 40q0 15 -5 32q-5 22 -20 34.5t-40 12.5q-45 0 -70 -47q-19 -28 -24 -74q-2 -12 -2 -33q0 -24 6 -39q5 -21 21 -34t41 -13q49 0 71 46q12 24 18 75zM174 579q0 4 3 8l83 105
q5 8 14 8h155q10 0 13 -8l59 -105q2 -4 2 -6q0 -4 -3.5 -6.5t-8.5 -2.5h-104q-10 0 -13 8l-26 53q-1 3 -3 3t-3 -3l-39 -53q-5 -8 -14 -8h-106q-9 0 -9 7z" />
    <glyph glyph-name="Gbreve" unicode="&#x11e;" horiz-adv-x="593" 
d="M108 51q-62 59 -62 158q0 26 2 39l25 205q9 76 48.5 133.5t102.5 89.5t140 32q71 0 124 -26.5t81.5 -72.5t28.5 -103q0 -9 -2 -29l-1 -5q-1 -5 -4.5 -8.5t-8.5 -3.5h-138q-5 0 -8 3.5t-2 8.5q1 4 1 12q0 35 -23 58.5t-65 23.5q-44 0 -75 -30t-37 -78l-27 -215
q-1 -5 -1 -16q0 -41 26.5 -66.5t67.5 -25.5q43 0 72 23.5t34 65.5l3 28q2 5 -4 5h-97q-5 0 -8 3.5t-2 8.5l13 110q1 5 4.5 8.5t8.5 3.5h249q5 0 8 -3.5t2 -8.5l-17 -136q-9 -75 -48 -132t-102 -88t-141 -31q-106 0 -168 59zM260.5 780q-41.5 34 -41.5 87q0 9 2.5 13t9.5 4
h80q10 0 10 -11q2 -20 17.5 -31.5t40.5 -11.5t43.5 11.5t25.5 31.5q3 11 13 11h78q5 0 8 -2.5t2 -7.5q-11 -56 -61.5 -92t-119.5 -36q-66 0 -107.5 34z" />
    <glyph glyph-name="gbreve" unicode="&#x11f;" horiz-adv-x="546" 
d="M392.5 513.5q3.5 3.5 8.5 3.5h138q5 0 8 -3.5t2 -8.5l-55 -447q-17 -137 -100.5 -196t-201.5 -59q-45 0 -91 8q-9 1 -8 13l20 124q1 13 15 10q38 -9 73 -9q55 0 90 26t42 82l-8 -7q-39 -36 -105 -36q-64 0 -114 29t-64 102q-5 23 -5 56q0 24 4 62q9 74 34 126
q30 62 83.5 99t118.5 37q71 0 102 -44q2 -2 4 -1.5t2 3.5l3 22q1 5 4.5 8.5zM358 264q4 34 4 40q0 15 -5 32q-5 22 -20 34.5t-40 12.5q-45 0 -70 -47q-19 -28 -24 -74q-2 -12 -2 -33q0 -24 6 -39q5 -21 21 -34t41 -13q49 0 71 46q12 24 18 75zM226.5 590q-41.5 34 -41.5 87
q0 9 2.5 13t9.5 4h80q10 0 10 -11q2 -20 17.5 -31.5t40.5 -11.5t43.5 11.5t25.5 31.5q3 11 13 11h78q5 0 8 -2.5t2 -7.5q-11 -56 -61.5 -92t-119.5 -36q-66 0 -107.5 34z" />
    <glyph glyph-name="Gdotaccent" unicode="&#x120;" horiz-adv-x="593" 
d="M108 51q-62 59 -62 158q0 26 2 39l25 205q9 76 48.5 133.5t102.5 89.5t140 32q71 0 124 -26.5t81.5 -72.5t28.5 -103q0 -9 -2 -29l-1 -5q-1 -5 -4.5 -8.5t-8.5 -3.5h-138q-5 0 -8 3.5t-2 8.5q1 4 1 12q0 35 -23 58.5t-65 23.5q-44 0 -75 -30t-37 -78l-27 -215
q-1 -5 -1 -16q0 -41 26.5 -66.5t67.5 -25.5q43 0 72 23.5t34 65.5l3 28q2 5 -4 5h-97q-5 0 -8 3.5t-2 8.5l13 110q1 5 4.5 8.5t8.5 3.5h249q5 0 8 -3.5t2 -8.5l-17 -136q-9 -75 -48 -132t-102 -88t-141 -31q-106 0 -168 59zM315.5 774q-20.5 21 -20.5 54q0 43 28 71t68 28
q34 0 54 -20t20 -54q0 -42 -28 -71t-67 -29q-34 0 -54.5 21z" />
    <glyph glyph-name="gdotaccent" unicode="&#x121;" horiz-adv-x="546" 
d="M392.5 513.5q3.5 3.5 8.5 3.5h138q5 0 8 -3.5t2 -8.5l-55 -447q-17 -137 -100.5 -196t-201.5 -59q-45 0 -91 8q-9 1 -8 13l20 124q1 13 15 10q38 -9 73 -9q55 0 90 26t42 82l-8 -7q-39 -36 -105 -36q-64 0 -114 29t-64 102q-5 23 -5 56q0 24 4 62q9 74 34 126
q30 62 83.5 99t118.5 37q71 0 102 -44q2 -2 4 -1.5t2 3.5l3 22q1 5 4.5 8.5zM358 264q4 34 4 40q0 15 -5 32q-5 22 -20 34.5t-40 12.5q-45 0 -70 -47q-19 -28 -24 -74q-2 -12 -2 -33q0 -24 6 -39q5 -21 21 -34t41 -13q49 0 71 46q12 24 18 75zM281.5 584q-20.5 21 -20.5 54
q0 43 28 71t68 28q34 0 54 -20t20 -54q0 -42 -28 -71t-67 -29q-34 0 -54.5 21z" />
    <glyph glyph-name="uni0122" unicode="&#x122;" horiz-adv-x="593" 
d="M108 51q-62 59 -62 158q0 26 2 39l25 205q9 76 48.5 133.5t102.5 89.5t140 32q71 0 124 -26.5t81.5 -72.5t28.5 -103q0 -9 -2 -29l-1 -5q-1 -5 -4.5 -8.5t-8.5 -3.5h-138q-5 0 -8 3.5t-2 8.5q1 4 1 12q0 35 -23 58.5t-65 23.5q-44 0 -75 -30t-37 -78l-27 -215
q-1 -5 -1 -16q0 -41 26.5 -66.5t67.5 -25.5q43 0 72 23.5t34 65.5l3 28q2 5 -4 5h-97q-5 0 -8 3.5t-2 8.5l13 110q1 5 4.5 8.5t8.5 3.5h249q5 0 8 -3.5t2 -8.5l-17 -136q-9 -75 -48 -132t-102 -88t-141 -31q-106 0 -168 59zM139.5 -172q-1.5 4 1.5 10l63 99q6 9 16 9h119
q9 0 9 -6q0 -5 -4 -9l-83 -100q-6 -7 -15 -7h-99q-6 0 -7.5 4z" />
    <glyph glyph-name="uni0123" unicode="&#x123;" horiz-adv-x="546" 
d="M467 682q2 -4 -2 -10l-64 -100q-6 -9 -15 -9h-119q-9 0 -9 6q0 5 4 9l83 101q6 7 15 7h99q6 0 8 -4zM392.5 513.5q3.5 3.5 8.5 3.5h138q5 0 8 -3.5t2 -8.5l-55 -447q-17 -137 -100.5 -196t-201.5 -59q-45 0 -91 8q-9 1 -8 13l20 124q1 13 15 10q38 -9 73 -9q55 0 90 26
t42 82l-8 -7q-39 -36 -105 -36q-64 0 -114 29t-64 102q-5 23 -5 56q0 24 4 62q9 74 34 126q30 62 83.5 99t118.5 37q71 0 102 -44q2 -2 4 -1.5t2 3.5l3 22q1 5 4.5 8.5zM358 264q4 34 4 40q0 15 -5 32q-5 22 -20 34.5t-40 12.5q-45 0 -70 -47q-19 -28 -24 -74q-2 -12 -2 -33
q0 -24 6 -39q5 -21 21 -34t41 -13q49 0 71 46q12 24 18 75z" />
    <glyph glyph-name="Hcircumflex" unicode="&#x124;" horiz-adv-x="601" 
d="M469.5 696.5q3.5 3.5 8.5 3.5h138q5 0 8 -3.5t2 -8.5l-83 -676q-1 -5 -4.5 -8.5t-8.5 -3.5h-138q-5 0 -8 3.5t-2 8.5l32 266q2 5 -4 5h-181q-4 0 -6 -5l-32 -266q-1 -5 -4.5 -8.5t-8.5 -3.5h-138q-5 0 -8 3.5t-2 8.5l83 676q0 5 4 8.5t9 3.5h137q11 0 11 -12l-32 -258
q0 -5 4 -5h182q2 0 3.5 1.5t1.5 3.5l32 258q1 5 4.5 8.5zM216 763q0 4 3 8l83 105q5 8 14 8h155q10 0 13 -8l59 -105q2 -4 2 -6q0 -4 -3.5 -6.5t-8.5 -2.5h-104q-10 0 -13 8l-26 53q-1 3 -3 3t-3 -3l-39 -53q-5 -8 -14 -8h-106q-9 0 -9 7z" />
    <glyph glyph-name="hcircumflex" unicode="&#x125;" 
d="M478.5 484q41.5 -41 41.5 -113q0 -8 -2 -30l-40 -329q-1 -5 -4.5 -8.5t-8.5 -3.5h-138q-5 0 -8 3.5t-2 8.5l36 293l1 12q0 30 -16 48t-42 18q-29 0 -50.5 -21.5t-25.5 -56.5l-36 -293q-1 -5 -4.5 -8.5t-8.5 -3.5h-138q-5 0 -8 3.5t-2 8.5l83 676q1 5 4.5 8.5t8.5 3.5h138
q5 0 8 -3.5t2 -8.5l-27 -220q-1 -4 1 -4.5t4 2.5q44 59 123 59q69 0 110.5 -41zM179 758q0 4 3 8l83 105q5 8 14 8h155q10 0 13 -8l59 -105q2 -4 2 -6q0 -4 -3.5 -6.5t-8.5 -2.5h-104q-10 0 -13 8l-26 53q-1 3 -3 3t-3 -3l-39 -53q-5 -8 -14 -8h-106q-9 0 -9 7z" />
    <glyph glyph-name="Hbar" unicode="&#x126;" horiz-adv-x="601" 
d="M668 614.5q3 -3.5 2 -8.5l-11 -88q-1 -5 -4.5 -8.5t-8.5 -3.5h-38q-5 0 -5 -5l-60 -489q-1 -5 -4.5 -8.5t-8.5 -3.5h-138q-5 0 -8 3.5t-2 8.5l32 266q2 5 -4 5h-181q-4 0 -6 -5l-32 -266q-1 -5 -4.5 -8.5t-8.5 -3.5h-138q-5 0 -8 3.5t-2 8.5l60 489q0 5 -5 5h-38
q-11 0 -11 12l11 88q1 5 4.5 8.5t8.5 3.5h39q4 0 6 5l8 65q0 5 4 8.5t9 3.5h137q11 0 11 -12l-8 -65q-2 -5 4 -5h181q4 0 6 5l8 65q1 5 4.5 8.5t8.5 3.5h138q5 0 8 -3.5t2 -8.5l-8 -65q-2 -5 4 -5h38q5 0 8 -3.5zM431.5 426.5q1.5 1.5 1.5 3.5l9 71q0 5 -4 5h-182
q-5 0 -5 -5l-9 -71q0 -5 4 -5h182q2 0 3.5 1.5z" />
    <glyph glyph-name="hbar" unicode="&#x127;" 
d="M478.5 484q41.5 -41 41.5 -113q0 -8 -2 -30l-40 -329q-1 -5 -4.5 -8.5t-8.5 -3.5h-138q-5 0 -8 3.5t-2 8.5l36 293l1 12q0 30 -16 48t-42 18q-29 0 -50.5 -21.5t-25.5 -56.5l-36 -293q-1 -5 -4.5 -8.5t-8.5 -3.5h-138q-5 0 -8 3.5t-2 8.5l65 529q0 5 -4 5h-41
q-5 0 -8 3.5t-2 8.5l9 74q1 5 4.5 8.5t8.5 3.5h41q2 0 3.5 1.5t1.5 3.5l5 39q1 5 4.5 8.5t8.5 3.5h138q5 0 8 -3.5t2 -8.5l-5 -39q0 -5 4 -5h121q5 0 8 -3.5t2 -8.5l-9 -74q-1 -5 -4.5 -8.5t-8.5 -3.5h-121q-5 0 -5 -5l-9 -73q-1 -4 1 -4.5t4 2.5q44 59 123 59
q69 0 110.5 -41z" />
    <glyph glyph-name="Itilde" unicode="&#x128;" horiz-adv-x="257" 
d="M32 3.5q-3 3.5 -2 8.5l83 676q0 5 4 8.5t9 3.5h137q11 0 11 -12l-83 -676q-1 -5 -4.5 -8.5t-8.5 -3.5h-138q-5 0 -8 3.5zM227.5 750q-13.5 4 -29.5 13q-18 9 -27.5 12t-19.5 3q-32 0 -54 -20q-11 -10 -17 -1l-42 54q-3 5 -3 8q0 4 3 8q20 30 50.5 48.5t66.5 18.5
q19 0 33.5 -5t26 -10.5t14.5 -7.5q12 -7 24 -11.5t23 -4.5q27 0 48 22q11 11 16 1l37 -56q5 -7 2 -13q-15 -27 -46 -45t-71 -18q-21 0 -34.5 4z" />
    <glyph glyph-name="itilde" unicode="&#x129;" horiz-adv-x="239" 
d="M23 3.5q-3 3.5 -2 8.5l60 493q1 5 5 8.5t9 3.5h137q5 0 8 -3.5t2 -8.5l-60 -493q-1 -5 -4.5 -8.5t-8.5 -3.5h-138q-5 0 -8 3.5zM196.5 567q-13.5 4 -29.5 13q-18 9 -27.5 12t-19.5 3q-32 0 -54 -20q-11 -10 -17 -1l-42 54q-3 5 -3 8q0 4 3 8q20 30 50.5 48.5t66.5 18.5
q19 0 33.5 -5t26 -10.5t14.5 -7.5q12 -7 24 -11.5t23 -4.5q27 0 48 22q11 11 16 1l37 -56q5 -7 2 -13q-15 -27 -46 -45t-71 -18q-21 0 -34.5 4z" />
    <glyph glyph-name="Imacron" unicode="&#x12a;" horiz-adv-x="257" 
d="M32 3.5q-3 3.5 -2 8.5l83 676q0 5 4 8.5t9 3.5h137q11 0 11 -12l-83 -676q-1 -5 -4.5 -8.5t-8.5 -3.5h-138q-5 0 -8 3.5zM58 758.5q-3 3.5 -2 8.5l11 87q1 5 4.5 8.5t8.5 3.5h271q5 0 8 -3.5t2 -8.5l-11 -87q-1 -5 -4.5 -8.5t-8.5 -3.5h-271q-5 0 -8 3.5z" />
    <glyph glyph-name="imacron" unicode="&#x12b;" horiz-adv-x="239" 
d="M23 3.5q-3 3.5 -2 8.5l60 493q1 5 5 8.5t9 3.5h137q5 0 8 -3.5t2 -8.5l-60 -493q-1 -5 -4.5 -8.5t-8.5 -3.5h-138q-5 0 -8 3.5zM27 575.5q-3 3.5 -2 8.5l11 87q1 5 4.5 8.5t8.5 3.5h271q5 0 8 -3.5t2 -8.5l-11 -87q-1 -5 -4.5 -8.5t-8.5 -3.5h-271q-5 0 -8 3.5z" />
    <glyph glyph-name="ibreve" unicode="&#x12d;" horiz-adv-x="239" 
d="M23 3.5q-3 3.5 -2 8.5l60 493q1 5 5 8.5t9 3.5h137q5 0 8 -3.5t2 -8.5l-60 -493q-1 -5 -4.5 -8.5t-8.5 -3.5h-138q-5 0 -8 3.5zM59.5 592.5q-41.5 32.5 -41.5 83.5q0 15 12 15h71q9 0 11 -11q2 -20 20 -32t46 -12t49 12t29 32q3 11 13 11h69q12 0 10 -9
q-11 -53 -61 -87.5t-119 -34.5q-67 0 -108.5 32.5z" />
    <glyph glyph-name="Iogonek" unicode="&#x12e;" horiz-adv-x="253" 
d="M30 3.5q-3 3.5 -2 8.5l83 676q0 5 4 8.5t9 3.5h137q11 0 11 -12l-83 -676q-1 -5 -4.5 -8.5t-8.5 -3.5h-138q-5 0 -8 3.5zM160 -182q-33 -13 -69 -13q-38 0 -62.5 18.5t-24.5 61.5q0 58 66 110q7 5 15 5h78q9 0 9 -5q0 -4 -7 -10q-28 -19 -41.5 -37t-11.5 -32q1 -9 8 -14
t17 -5q5 0 19 4q2 1 6 1q7 0 7 -9l1 -61q0 -11 -10 -14z" />
    <glyph glyph-name="iogonek" unicode="&#x12f;" horiz-adv-x="252" 
d="M33 3.5q-3 3.5 -2 8.5l60 493q1 5 5 8.5t9 3.5h137q5 0 8 -3.5t2 -8.5l-60 -493q-1 -5 -4.5 -8.5t-8.5 -3.5h-138q-5 0 -8 3.5zM124.5 584q-20.5 21 -20.5 54q0 43 28 71t68 28q34 0 54 -20t20 -54q0 -42 -28 -71t-67 -29q-34 0 -54.5 21zM163 -182q-33 -13 -69 -13
q-38 0 -62.5 18.5t-24.5 61.5q0 58 66 110q7 5 15 5h78q9 0 9 -5q0 -4 -7 -10q-28 -19 -41.5 -37t-11.5 -32q1 -9 8 -14t17 -5q5 0 19 4q2 1 6 1q7 0 7 -9l1 -61q0 -11 -10 -14z" />
    <glyph glyph-name="Idotaccent" unicode="&#x130;" horiz-adv-x="257" 
d="M32 3.5q-3 3.5 -2 8.5l83 676q0 5 4 8.5t9 3.5h137q11 0 11 -12l-83 -676q-1 -5 -4.5 -8.5t-8.5 -3.5h-138q-5 0 -8 3.5zM146.5 767q-20.5 21 -20.5 54q0 43 28 71t68 28q34 0 54 -20t20 -54q0 -42 -28 -71t-67 -29q-34 0 -54.5 21z" />
    <glyph glyph-name="dotlessi" unicode="&#x131;" horiz-adv-x="239" 
d="M23 3.5q-3 3.5 -2 8.5l60 493q1 5 5 8.5t9 3.5h137q5 0 8 -3.5t2 -8.5l-60 -493q-1 -5 -4.5 -8.5t-8.5 -3.5h-138q-5 0 -8 3.5z" />
    <glyph glyph-name="ij" unicode="&#x133;" horiz-adv-x="482" 
d="M119.5 584q-20.5 21 -20.5 54q0 43 28 71t68 28q34 0 54.5 -20t20.5 -54q0 -42 -28.5 -71t-67.5 -29q-34 0 -54.5 21zM27 3.5q-3 3.5 -2 8.5l60 493q1 5 4.5 8.5t8.5 3.5h138q5 0 8 -3.5t2 -8.5l-60 -493q-1 -5 -4.5 -8.5t-8.5 -3.5h-138q-5 0 -8 3.5zM354.5 584
q-20.5 21 -20.5 54q0 43 28 71t68 28q34 0 54.5 -20t20.5 -54q0 -42 -28.5 -71t-67.5 -29q-34 0 -54.5 21zM125 -198.5q-3 3.5 -2 8.5l14 115q1 6 5 9t9 2q59 -3 82.5 13.5t29.5 63.5l58 492q1 5 4.5 8.5t8.5 3.5h138q5 0 8 -3.5t2 -8.5l-60 -490q-11 -89 -39 -136
t-86 -65.5t-164 -15.5q-5 0 -8 3.5z" />
    <glyph glyph-name="Jcircumflex" unicode="&#x134;" horiz-adv-x="568" 
d="M81.5 46.5q-60.5 54.5 -60.5 145.5q0 10 2 34l7 59q1 5 4.5 8.5t8.5 3.5h138q5 0 8 -3.5t2 -8.5l-7 -58q-1 -5 -1 -16q0 -36 21 -56.5t60 -20.5q40 0 69.5 25.5t34.5 67.5l57 461q1 5 4.5 8.5t8.5 3.5h137q5 0 8 -3.5t2 -8.5l-57 -462q-8 -69 -46.5 -122t-100 -82.5
t-135.5 -29.5q-104 0 -164.5 54.5zM351 763q0 4 3 8l83 105q5 8 14 8h155q10 0 13 -8l59 -105q2 -4 2 -6q0 -4 -3.5 -6.5t-8.5 -2.5h-104q-10 0 -13 8l-26 53q-1 3 -3 3t-3 -3l-39 -53q-5 -8 -14 -8h-106q-9 0 -9 7z" />
    <glyph glyph-name="jcircumflex" unicode="&#x135;" horiz-adv-x="255" 
d="M-107 -198.5q-3 3.5 -2 8.5l14 115q1 6 5 9t9 2q59 -3 82.5 13.5t29.5 63.5l58 492q1 5 4.5 8.5t8.5 3.5h140q5 0 8 -3.5t2 -8.5l-60 -490q-11 -89 -39.5 -136t-87 -65.5t-164.5 -15.5q-5 0 -8 3.5zM17 579q0 4 3 8l83 105q5 8 14 8h155q10 0 13 -8l59 -105q2 -4 2 -6
q0 -4 -3.5 -6.5t-8.5 -2.5h-104q-10 0 -13 8l-26 53q-1 3 -3 3t-3 -3l-39 -53q-5 -8 -14 -8h-106q-9 0 -9 7z" />
    <glyph glyph-name="uni0136" unicode="&#x136;" horiz-adv-x="612" 
d="M32 3.5q-3 3.5 -2 8.5l83 676q0 5 4 8.5t9 3.5h137q11 0 11 -12l-32 -260q-1 -3 1 -3.5t4 1.5l229 267q6 7 14 7h158q8 0 8 -7q0 -3 -3 -8l-245 -289q-4 -4 -2 -7l173 -375q1 -2 1 -6q0 -8 -11 -8h-154q-10 0 -13 8l-120 267q-1 6 -7 0l-59 -71l-3 -6l-22 -186
q-1 -5 -4.5 -8.5t-8.5 -3.5h-138q-5 0 -8 3.5zM142.5 -164q-1.5 4 1.5 10l63 99q6 9 16 9h119q9 0 9 -6q0 -5 -4 -9l-83 -100q-6 -7 -15 -7h-99q-6 0 -7.5 4z" />
    <glyph glyph-name="uni0137" unicode="&#x137;" horiz-adv-x="528" 
d="M25 3.5q-3 3.5 -2 8.5l83 676q1 5 4.5 8.5t8.5 3.5h138q5 0 8 -3.5t2 -8.5l-38 -311q-1 -3 1 -3.5t4 1.5l123 135q6 7 15 7h158q9 0 9 -6q0 -5 -4 -9l-148 -169q-1 -2 -1 -7l107 -312l1 -4q0 -10 -12 -10h-143q-10 0 -13 9l-62 213q-1 2 -3 2.5t-4 -1.5l-54 -67
q-2 -4 -2 -6l-17 -138q-1 -5 -4.5 -8.5t-8.5 -3.5h-138q-5 0 -8 3.5zM114.5 -164q-1.5 4 1.5 10l63 99q6 9 16 9h119q9 0 9 -6q0 -5 -4 -9l-83 -100q-6 -7 -15 -7h-99q-6 0 -7.5 4z" />
    <glyph glyph-name="Lacute" unicode="&#x139;" horiz-adv-x="556" 
d="M32 3.5q-3 3.5 -2 8.5l83 676q0 5 4 8.5t9 3.5h137q11 0 11 -12l-67 -541q0 -5 4 -5h310q5 0 8 -3.5t2 -8.5l-14 -118q-1 -5 -5 -8.5t-9 -3.5h-463q-5 0 -8 3.5zM130.5 765q-1.5 4 1.5 10l63 99q6 9 16 9h119q9 0 9 -6q0 -5 -4 -9l-83 -100q-6 -7 -15 -7h-99q-6 0 -7.5 4
z" />
    <glyph glyph-name="lacute" unicode="&#x13a;" horiz-adv-x="242" 
d="M25 3.5q-3 3.5 -2 8.5l83 676q1 5 4.5 8.5t8.5 3.5h138q5 0 8 -3.5t2 -8.5l-83 -676q-1 -5 -4.5 -8.5t-8.5 -3.5h-138q-5 0 -8 3.5zM124.5 765q-1.5 4 1.5 10l63 99q6 9 16 9h119q9 0 9 -6q0 -5 -4 -9l-83 -100q-6 -7 -15 -7h-99q-6 0 -7.5 4z" />
    <glyph glyph-name="uni013B" unicode="&#x13b;" horiz-adv-x="556" 
d="M32 3.5q-3 3.5 -2 8.5l83 676q0 5 4 8.5t9 3.5h137q11 0 11 -12l-67 -541q0 -5 4 -5h310q5 0 8 -3.5t2 -8.5l-14 -118q-1 -5 -5 -8.5t-9 -3.5h-463q-5 0 -8 3.5zM111.5 -164q-1.5 4 1.5 10l63 99q6 9 16 9h119q9 0 9 -6q0 -5 -4 -9l-83 -100q-6 -7 -15 -7h-99
q-6 0 -7.5 4z" />
    <glyph glyph-name="uni013C" unicode="&#x13c;" horiz-adv-x="242" 
d="M25 3.5q-3 3.5 -2 8.5l83 676q1 5 4.5 8.5t8.5 3.5h138q5 0 8 -3.5t2 -8.5l-83 -676q-1 -5 -4.5 -8.5t-8.5 -3.5h-138q-5 0 -8 3.5zM-49.5 -164q-1.5 4 1.5 10l63 99q6 9 16 9h119q9 0 9 -6q0 -5 -4 -9l-83 -100q-6 -7 -15 -7h-99q-6 0 -7.5 4z" />
    <glyph glyph-name="Lcaron" unicode="&#x13d;" horiz-adv-x="556" 
d="M32 3.5q-3 3.5 -2 8.5l83 676q0 5 4 8.5t9 3.5h137q11 0 11 -12l-67 -541q0 -5 4 -5h310q5 0 8 -3.5t2 -8.5l-14 -118q-1 -5 -5 -8.5t-9 -3.5h-463q-5 0 -8 3.5zM314.5 582q-1.5 4 1.5 10l63 99q6 9 16 9h119q9 0 9 -6q0 -5 -4 -9l-83 -100q-6 -7 -15 -7h-99q-6 0 -7.5 4
z" />
    <glyph glyph-name="lcaron" unicode="&#x13e;" horiz-adv-x="448" 
d="M25 3.5q-3 3.5 -2 8.5l83 676q1 5 4.5 8.5t8.5 3.5h138q5 0 8 -3.5t2 -8.5l-83 -676q-1 -5 -4.5 -8.5t-8.5 -3.5h-138q-5 0 -8 3.5zM277.5 582q-1.5 4 1.5 10l63 99q6 9 16 9h119q9 0 9 -6q0 -5 -4 -9l-83 -100q-6 -7 -15 -7h-99q-6 0 -7.5 4z" />
    <glyph glyph-name="ldot" unicode="&#x140;" horiz-adv-x="250" 
d="M29 3.5q-3 3.5 -2 8.5l83 676q1 5 4.5 8.5t8.5 3.5h138q5 0 8 -3.5t2 -8.5l-83 -676q-1 -5 -4.5 -8.5t-8.5 -3.5h-138q-5 0 -8 3.5zM143.5 767q-20.5 21 -20.5 54q0 43 28 71t68 28q34 0 54 -20t20 -54q0 -42 -28 -71t-67 -29q-34 0 -54.5 21z" />
    <glyph glyph-name="Lslash" unicode="&#x141;" horiz-adv-x="643" 
d="M300 142h309q5 0 8 -3.5t2 -8.5l-14 -118q-1 -5 -4.5 -8.5t-8.5 -3.5h-464q-5 0 -8 3.5t-2 8.5l20 162q0 8 -6 3l-71 -57q-6 -4 -8 -4q-5 0 -8 5l-55 77q-2 2 -2 7q0 6 5 10l163 130q3 2 3 6l42 337q1 5 4.5 8.5t8.5 3.5h138q5 0 8 -3.5t2 -8.5l-23 -190q-1 -3 1 -4t4 1
l182 145q6 4 8 4q5 0 8 -5l54 -77q2 -2 2 -7q0 -6 -5 -10l-273 -218q-3 -1 -3 -6l-22 -174q0 -5 5 -5z" />
    <glyph glyph-name="lslash" unicode="&#x142;" horiz-adv-x="454" 
d="M469 408q0 -7 -8 -12l-137 -72q-3 -2 -5 -6l-37 -306q-1 -5 -4.5 -8.5t-8.5 -3.5h-138q-5 0 -8 3.5t-2 8.5l26 213q0 3 -1.5 4t-3.5 0l-62 -32q-4 -2 -7 -2q-7 0 -8 7l-33 84l-1 5q0 7 7 12l122 64q5 3 5 6l39 315q1 5 4.5 8.5t8.5 3.5h138q5 0 8 -3.5t2 -8.5l-27 -221
q-1 -3 1 -4.5t4 0.5l75 40q4 2 6 2q7 0 10 -7l34 -85q1 -2 1 -5z" />
    <glyph glyph-name="Nacute" unicode="&#x143;" horiz-adv-x="642" 
d="M502.5 696.5q3.5 3.5 8.5 3.5h138q5 0 8 -3.5t2 -8.5l-83 -676q-1 -5 -4.5 -8.5t-8.5 -3.5h-132q-10 0 -13 8l-176 382q-2 3 -4 2.5t-2 -4.5l-45 -376q-1 -5 -4.5 -8.5t-8.5 -3.5h-138q-5 0 -8 3.5t-2 8.5l83 676q0 5 4 8.5t9 3.5h133q9 0 12 -8l176 -381q1 -3 3 -2.5
t3 4.5l45 375q1 5 4.5 8.5zM314.5 765q-1.5 4 1.5 10l63 99q6 9 16 9h119q9 0 9 -6q0 -5 -4 -9l-83 -100q-6 -7 -15 -7h-99q-6 0 -7.5 4z" />
    <glyph glyph-name="nacute" unicode="&#x144;" 
d="M478.5 484q41.5 -41 41.5 -113q0 -8 -2 -30l-40 -329q-1 -5 -4.5 -8.5t-8.5 -3.5h-138q-5 0 -8 3.5t-2 8.5l36 293l1 12q0 30 -16 48t-42 18q-29 0 -50.5 -21.5t-25.5 -56.5l-36 -293q-1 -5 -4.5 -8.5t-8.5 -3.5h-138q-5 0 -8 3.5t-2 8.5l60 493q1 5 4.5 8.5t8.5 3.5h138
q5 0 8 -3.5t2 -8.5l-4 -37q-1 -4 1 -4.5t4 2.5q44 59 123 59q69 0 110.5 -41zM253.5 582q-1.5 4 1.5 10l63 99q6 9 16 9h119q9 0 9 -6q0 -5 -4 -9l-83 -100q-6 -7 -15 -7h-99q-6 0 -7.5 4z" />
    <glyph glyph-name="uni0145" unicode="&#x145;" horiz-adv-x="642" 
d="M502.5 696.5q3.5 3.5 8.5 3.5h138q5 0 8 -3.5t2 -8.5l-83 -676q-1 -5 -4.5 -8.5t-8.5 -3.5h-132q-10 0 -13 8l-176 382q-2 3 -4 2.5t-2 -4.5l-45 -376q-1 -5 -4.5 -8.5t-8.5 -3.5h-138q-5 0 -8 3.5t-2 8.5l83 676q0 5 4 8.5t9 3.5h133q9 0 12 -8l176 -381q1 -3 3 -2.5
t3 4.5l45 375q1 5 4.5 8.5zM163.5 -164q-1.5 4 1.5 10l63 99q6 9 16 9h119q9 0 9 -6q0 -5 -4 -9l-83 -100q-6 -7 -15 -7h-99q-6 0 -7.5 4z" />
    <glyph glyph-name="uni0146" unicode="&#x146;" 
d="M478.5 484q41.5 -41 41.5 -113q0 -8 -2 -30l-40 -329q-1 -5 -4.5 -8.5t-8.5 -3.5h-138q-5 0 -8 3.5t-2 8.5l36 293l1 12q0 30 -16 48t-42 18q-29 0 -50.5 -21.5t-25.5 -56.5l-36 -293q-1 -5 -4.5 -8.5t-8.5 -3.5h-138q-5 0 -8 3.5t-2 8.5l60 493q1 5 4.5 8.5t8.5 3.5h138
q5 0 8 -3.5t2 -8.5l-4 -37q-1 -4 1 -4.5t4 2.5q44 59 123 59q69 0 110.5 -41zM113.5 -164q-1.5 4 1.5 10l63 99q6 9 16 9h119q9 0 9 -6q0 -5 -4 -9l-83 -100q-6 -7 -15 -7h-99q-6 0 -7.5 4z" />
    <glyph glyph-name="Ncaron" unicode="&#x147;" horiz-adv-x="642" 
d="M502.5 696.5q3.5 3.5 8.5 3.5h138q5 0 8 -3.5t2 -8.5l-83 -676q-1 -5 -4.5 -8.5t-8.5 -3.5h-132q-10 0 -13 8l-176 382q-2 3 -4 2.5t-2 -4.5l-45 -376q-1 -5 -4.5 -8.5t-8.5 -3.5h-138q-5 0 -8 3.5t-2 8.5l83 676q0 5 4 8.5t9 3.5h133q9 0 12 -8l176 -381q1 -3 3 -2.5
t3 4.5l45 375q1 5 4.5 8.5zM244 873q0 10 11 10h105q10 0 13 -8l25 -54q2 -3 4 -3t3 3l39 54q4 8 14 8h105q9 0 9 -7q0 -3 -3 -8l-85 -105q-5 -8 -14 -8h-155q-10 0 -13 8l-57 105q-1 2 -1 5z" />
    <glyph glyph-name="ncaron" unicode="&#x148;" 
d="M478.5 484q41.5 -41 41.5 -113q0 -8 -2 -30l-40 -329q-1 -5 -4.5 -8.5t-8.5 -3.5h-138q-5 0 -8 3.5t-2 8.5l36 293l1 12q0 30 -16 48t-42 18q-29 0 -50.5 -21.5t-25.5 -56.5l-36 -293q-1 -5 -4.5 -8.5t-8.5 -3.5h-138q-5 0 -8 3.5t-2 8.5l60 493q1 5 4.5 8.5t8.5 3.5h138
q5 0 8 -3.5t2 -8.5l-4 -37q-1 -4 1 -4.5t4 2.5q44 59 123 59q69 0 110.5 -41zM183 690q0 10 11 10h105q10 0 13 -8l25 -54q2 -3 4 -3t3 3l39 54q4 8 14 8h105q9 0 9 -7q0 -3 -3 -8l-85 -105q-5 -8 -14 -8h-155q-10 0 -13 8l-57 105q-1 2 -1 5z" />
    <glyph glyph-name="Eng" unicode="&#x14a;" horiz-adv-x="642" 
d="M502.5 696.5q3.5 3.5 8.5 3.5h138q5 0 8 -3.5t2 -8.5l-85 -688q-12 -79 -41.5 -121t-86.5 -58.5t-157 -13.5q-11 0 -11 12l15 115q2 13 14 11q54 -3 77 11.5t31 55.5q0 2 -2 6l-171 372q-2 3 -4 2.5t-2 -4.5l-45 -376q-1 -5 -4.5 -8.5t-8.5 -3.5h-138q-5 0 -8 3.5t-2 8.5
l83 676q0 5 4 8.5t9 3.5h133q9 0 12 -8l175 -379q1 -3 3 -2.5t3 4.5l46 373q1 5 4.5 8.5z" />
    <glyph glyph-name="eng" unicode="&#x14b;" horiz-adv-x="534" 
d="M504 217h1l-24 -195q-10 -84 -33.5 -129.5t-77.5 -67t-156 -21.5q-11 0 -11 12l14 108q2 12 13 12q41 2 60 15.5t26 45.5v3h-1l38 305l1 12q0 30 -16 48t-42 18q-29 0 -50.5 -21.5t-25.5 -56.5l-36 -293q-1 -5 -4.5 -8.5t-8.5 -3.5h-138q-5 0 -8 3.5t-2 8.5l60 493
q1 5 4.5 8.5t8.5 3.5h138q5 0 8 -3.5t2 -8.5l-4 -37q-1 -4 1 -4.5t4 3.5q46 58 123 58q69 0 110.5 -41t41.5 -113q0 -8 -2 -30l-14 -119q-1 -3 0 -5z" />
    <glyph glyph-name="Omacron" unicode="&#x14c;" horiz-adv-x="602" 
d="M109 49q-63 60 -63 162q0 25 2 39l25 200q9 76 49.5 134.5t104 91t141.5 32.5q72 0 125 -27t81.5 -76.5t28.5 -115.5q0 -26 -2 -39l-24 -200q-9 -78 -49.5 -137t-104.5 -91.5t-143 -32.5q-108 0 -171 60zM376.5 162.5q32.5 31.5 38.5 82.5l26 207q1 6 1 18q0 44 -24.5 70
t-66.5 26q-46 0 -78.5 -31.5t-38.5 -82.5l-25 -207q-1 -7 -1 -20q0 -44 24 -69t65 -25q47 0 79.5 31.5zM231 758.5q-3 3.5 -2 8.5l11 87q1 5 4.5 8.5t8.5 3.5h271q5 0 8 -3.5t2 -8.5l-11 -87q-1 -5 -4.5 -8.5t-8.5 -3.5h-271q-5 0 -8 3.5z" />
    <glyph glyph-name="omacron" unicode="&#x14d;" horiz-adv-x="537" 
d="M108 40q-55 48 -66 130q-3 21 -3 43q0 23 3 47q6 54 24 97q33 79 99 123.5t152 44.5q85 0 139 -44.5t67 -122.5q4 -23 4 -54q0 -28 -2 -42q-6 -49 -22 -88q-30 -84 -97 -133t-156 -49q-87 0 -142 48zM317 152.5q21 18.5 33 50.5q8 22 13 57q2 22 2 31q0 43 -16.5 67.5
t-50.5 24.5q-56 0 -81 -65q-10 -27 -13 -58q-3 -19 -3 -37q0 -40 17 -64.5t50 -24.5q28 0 49 18.5zM176 575.5q-3 3.5 -2 8.5l11 87q1 5 4.5 8.5t8.5 3.5h271q5 0 8 -3.5t2 -8.5l-11 -87q-1 -5 -4.5 -8.5t-8.5 -3.5h-271q-5 0 -8 3.5z" />
    <glyph glyph-name="obreve" unicode="&#x14f;" horiz-adv-x="537" 
d="M108 40q-55 48 -66 130q-3 21 -3 43q0 23 3 47q6 54 24 97q33 79 99 123.5t152 44.5q85 0 139 -44.5t67 -122.5q4 -23 4 -54q0 -28 -2 -42q-6 -49 -22 -88q-30 -84 -97 -133t-156 -49q-87 0 -142 48zM317 152.5q21 18.5 33 50.5q8 22 13 57q2 22 2 31q0 43 -16.5 67.5
t-50.5 24.5q-56 0 -81 -65q-10 -27 -13 -58q-3 -19 -3 -37q0 -40 17 -64.5t50 -24.5q28 0 49 18.5zM209.5 592.5q-41.5 32.5 -41.5 83.5q0 15 12 15h71q9 0 11 -11q2 -20 20 -32t46 -12t49 12t29 32q3 11 13 11h69q12 0 10 -9q-11 -53 -61 -87.5t-119 -34.5
q-67 0 -108.5 32.5z" />
    <glyph glyph-name="Ohungarumlaut" unicode="&#x150;" horiz-adv-x="602" 
d="M109 49q-63 60 -63 162q0 25 2 39l25 200q9 76 49.5 134.5t104 91t141.5 32.5q72 0 125 -27t81.5 -76.5t28.5 -115.5q0 -26 -2 -39l-24 -200q-9 -78 -49.5 -137t-104.5 -91.5t-143 -32.5q-108 0 -171 60zM376.5 162.5q32.5 31.5 38.5 82.5l26 207q1 6 1 18q0 44 -24.5 70
t-66.5 26q-46 0 -78.5 -31.5t-38.5 -82.5l-25 -207q-1 -7 -1 -20q0 -44 24 -69t65 -25q47 0 79.5 31.5zM227 764.5q-2 3.5 2 10.5l54 99q5 9 15 9h121q7 0 9 -3.5t-2 -10.5l-62 -99q-6 -9 -15 -9h-113q-7 0 -9 3.5zM405 765q-2 4 2 10l63 99q2 4 6.5 6.5t8.5 2.5h114
q9 0 9 -6q0 -3 -3 -8l-63 -99q-2 -4 -6.5 -6.5t-8.5 -2.5h-113q-7 0 -9 4z" />
    <glyph glyph-name="ohungarumlaut" unicode="&#x151;" horiz-adv-x="537" 
d="M108 40q-55 48 -66 130q-3 21 -3 43q0 23 3 47q6 54 24 97q33 79 99 123.5t152 44.5q85 0 139 -44.5t67 -122.5q4 -23 4 -54q0 -28 -2 -42q-6 -49 -22 -88q-30 -84 -97 -133t-156 -49q-87 0 -142 48zM317 152.5q21 18.5 33 50.5q8 22 13 57q2 22 2 31q0 43 -16.5 67.5
t-50.5 24.5q-56 0 -81 -65q-10 -27 -13 -58q-3 -19 -3 -37q0 -40 17 -64.5t50 -24.5q28 0 49 18.5zM172 581.5q-2 3.5 2 10.5l54 99q5 9 15 9h121q7 0 9 -3.5t-2 -10.5l-62 -99q-6 -9 -15 -9h-113q-7 0 -9 3.5zM350 582q-2 4 2 10l63 99q2 4 6.5 6.5t8.5 2.5h114q9 0 9 -6
q0 -3 -3 -8l-63 -99q-2 -4 -6.5 -6.5t-8.5 -2.5h-113q-7 0 -9 4z" />
    <glyph glyph-name="OE" unicode="&#x152;" horiz-adv-x="906" 
d="M922 561.5q-4 -3.5 -9 -3.5h-298q-4 0 -6 -5l-15 -123q0 -5 4 -5h189q11 0 11 -12l-15 -117q-1 -5 -4.5 -8.5t-8.5 -3.5h-189q-5 0 -5 -5l-17 -132q0 -5 5 -5h298q5 0 8 -3.5t2 -8.5l-14 -118q-1 -5 -4.5 -8.5t-8.5 -3.5h-453q-5 0 -8 3.5t-2 8.5l2 16q0 3 -2 4t-4 -1
q-33 -20 -70 -31t-73 -11q-53 0 -96.5 27t-68.5 76.5t-25 113.5q0 20 3 41l25 206q9 74 46 132t91.5 90.5t113.5 32.5q36 0 70 -10.5t62 -30.5q5 -4 7 3l2 18q1 5 4.5 8.5t8.5 3.5h453q5 0 8 -3.5t2 -8.5l-15 -118q0 -5 -4 -8.5zM372 161.5q32 30.5 38 80.5l26 212q1 6 1 18
q0 43 -24 68.5t-65 25.5q-45 0 -76.5 -31t-37.5 -81l-26 -212q-1 -6 -1 -19q0 -42 23.5 -67t63.5 -25q46 0 78 30.5z" />
    <glyph glyph-name="oe" unicode="&#x153;" horiz-adv-x="850" 
d="M669 140.5q25 9.5 43 27.5q11 10 17 1l60 -75q3 -4 3 -8t-5 -9q-87 -85 -209 -85q-104 0 -161 70q-3 5 -6 0q-78 -70 -167 -70q-77 0 -129.5 41t-69.5 112q-7 28 -7 61q0 18 4 54q8 67 31 116q34 70 97 109.5t141 39.5q43 0 81.5 -18t66.5 -50q3 -4 7 -1q36 32 78 50.5
t87 18.5q80 0 134.5 -42.5t68.5 -109.5q6 -21 6 -56q0 -39 -7 -94q-1 -12 -13 -12h-293q-5 0 -5 -4t3 -22q12 -54 92 -54q27 0 52 9.5zM351 261q3 23 3 39q0 23 -6 38q-5 21 -19.5 33t-36.5 12t-39 -12t-28 -33q-15 -27 -21 -77q-3 -24 -3 -42q0 -26 4 -39q6 -22 20.5 -34
t36.5 -12q21 0 38.5 12.5t28.5 33.5q16 27 22 81zM543 332q-6 -14 -7 -22q-1 -2 0 -3.5t3 -1.5h135q5 0 5 4q0 14 -3 23q-5 23 -20.5 37t-40.5 14q-46 0 -72 -51z" />
    <glyph glyph-name="Racute" unicode="&#x154;" horiz-adv-x="596" 
d="M379 9l-81 266q-2 4 -6 4h-64q-5 0 -5 -5l-32 -262q-1 -5 -4.5 -8.5t-8.5 -3.5h-138q-5 0 -8 3.5t-2 8.5l83 676q0 5 4 8.5t9 3.5h288q88 0 139 -50t51 -135q0 -10 -2 -32q-9 -67 -47 -116t-98 -71q-5 -2 -3 -7l94 -275q1 -2 1 -5q0 -9 -12 -9h-145q-10 0 -13 9zM257 553
l-17 -142q-2 -5 4 -5h108q39 0 64.5 24t25.5 63q0 30 -19.5 47.5t-52.5 17.5h-107q-6 0 -6 -5zM276.5 765q-1.5 4 1.5 10l63 99q6 9 16 9h119q9 0 9 -6q0 -5 -4 -9l-83 -100q-6 -7 -15 -7h-99q-6 0 -7.5 4z" />
    <glyph glyph-name="racute" unicode="&#x155;" horiz-adv-x="378" 
d="M405 511q7 -6 4 -15l-39 -139q-3 -12 -15 -7q-16 4 -33 4q-16 0 -25 -2q-30 -4 -53.5 -24t-27.5 -53l-32 -263q-1 -5 -4.5 -8.5t-8.5 -3.5h-138q-5 0 -8 3.5t-2 8.5l60 493q1 5 4.5 8.5t8.5 3.5h138q5 0 8 -3.5t2 -8.5l-4 -32q0 -3 2 -4t3 2q45 53 107 53q34 0 53 -13z
M187.5 582q-1.5 4 1.5 10l63 99q6 9 16 9h119q9 0 9 -6q0 -5 -4 -9l-83 -100q-6 -7 -15 -7h-99q-6 0 -7.5 4z" />
    <glyph glyph-name="uni0156" unicode="&#x156;" horiz-adv-x="596" 
d="M379 9l-81 266q-2 4 -6 4h-64q-5 0 -5 -5l-32 -262q-1 -5 -4.5 -8.5t-8.5 -3.5h-138q-5 0 -8 3.5t-2 8.5l83 676q0 5 4 8.5t9 3.5h288q88 0 139 -50t51 -135q0 -10 -2 -32q-9 -67 -47 -116t-98 -71q-5 -2 -3 -7l94 -275q1 -2 1 -5q0 -9 -12 -9h-145q-10 0 -13 9zM257 553
l-17 -142q-2 -5 4 -5h108q39 0 64.5 24t25.5 63q0 30 -19.5 47.5t-52.5 17.5h-107q-6 0 -6 -5zM130.5 -164q-1.5 4 1.5 10l63 99q6 9 16 9h119q9 0 9 -6q0 -5 -4 -9l-83 -100q-6 -7 -15 -7h-99q-6 0 -7.5 4z" />
    <glyph glyph-name="uni0157" unicode="&#x157;" horiz-adv-x="378" 
d="M405 511q7 -6 4 -15l-39 -139q-3 -12 -15 -7q-16 4 -33 4q-16 0 -25 -2q-30 -4 -53.5 -24t-27.5 -53l-32 -263q-1 -5 -4.5 -8.5t-8.5 -3.5h-138q-5 0 -8 3.5t-2 8.5l60 493q1 5 4.5 8.5t8.5 3.5h138q5 0 8 -3.5t2 -8.5l-4 -32q0 -3 2 -4t3 2q45 53 107 53q34 0 53 -13z
M-56.5 -164q-1.5 4 1.5 10l63 99q6 9 16 9h119q9 0 9 -6q0 -5 -4 -9l-83 -100q-6 -7 -15 -7h-99q-6 0 -7.5 4z" />
    <glyph glyph-name="Rcaron" unicode="&#x158;" horiz-adv-x="596" 
d="M379 9l-81 266q-2 4 -6 4h-64q-5 0 -5 -5l-32 -262q-1 -5 -4.5 -8.5t-8.5 -3.5h-138q-5 0 -8 3.5t-2 8.5l83 676q0 5 4 8.5t9 3.5h288q88 0 139 -50t51 -135q0 -10 -2 -32q-9 -67 -47 -116t-98 -71q-5 -2 -3 -7l94 -275q1 -2 1 -5q0 -9 -12 -9h-145q-10 0 -13 9zM257 553
l-17 -142q-2 -5 4 -5h108q39 0 64.5 24t25.5 63q0 30 -19.5 47.5t-52.5 17.5h-107q-6 0 -6 -5zM205 873q0 10 11 10h105q10 0 13 -8l25 -54q2 -3 4 -3t3 3l39 54q4 8 14 8h105q9 0 9 -7q0 -3 -3 -8l-85 -105q-5 -8 -14 -8h-155q-10 0 -13 8l-57 105q-1 2 -1 5z" />
    <glyph glyph-name="rcaron" unicode="&#x159;" horiz-adv-x="378" 
d="M405 511q7 -6 4 -15l-39 -139q-3 -12 -15 -7q-16 4 -33 4q-16 0 -25 -2q-30 -4 -53.5 -24t-27.5 -53l-32 -263q-1 -5 -4.5 -8.5t-8.5 -3.5h-138q-5 0 -8 3.5t-2 8.5l60 493q1 5 4.5 8.5t8.5 3.5h138q5 0 8 -3.5t2 -8.5l-4 -32q0 -3 2 -4t3 2q45 53 107 53q34 0 53 -13z
M117 690q0 10 11 10h105q10 0 13 -8l25 -54q2 -3 4 -3t3 3l39 54q4 8 14 8h105q9 0 9 -7q0 -3 -3 -8l-85 -105q-5 -8 -14 -8h-155q-10 0 -13 8l-57 105q-1 2 -1 5z" />
    <glyph glyph-name="Sacute" unicode="&#x15a;" horiz-adv-x="581" 
d="M97.5 42.5q-64.5 50.5 -64.5 137.5q0 9 2 29l3 19q1 5 4.5 8.5t8.5 3.5h135q5 0 8 -3.5t2 -8.5l-2 -12q-4 -33 25.5 -57.5t83.5 -24.5q46 0 68.5 21.5t22.5 47.5q0 24 -21 37.5t-76 33.5l-23 8q-56 20 -97 42t-70.5 60t-29.5 93q0 8 2 26q8 62 45.5 108.5t96.5 71.5
t130 25q69 0 122.5 -24t83.5 -68.5t30 -102.5q0 -9 -2 -29l-2 -14q0 -5 -4 -8.5t-9 -3.5h-134q-5 0 -8.5 3.5t-2.5 8.5l1 7q4 35 -22.5 62t-76.5 27q-41 0 -65 -18.5t-24 -51.5q0 -18 13 -31t39 -24.5t80 -31.5q61 -22 94.5 -38t63 -51.5t29.5 -91.5q0 -8 -2 -26
q-12 -97 -88.5 -153.5t-192.5 -56.5q-112 0 -176.5 50.5zM291.5 765q-1.5 4 1.5 10l63 99q6 9 16 9h119q9 0 9 -6q0 -5 -4 -9l-83 -100q-6 -7 -15 -7h-99q-6 0 -7.5 4z" />
    <glyph glyph-name="sacute" unicode="&#x15b;" horiz-adv-x="496" 
d="M81 30q-56 38 -56 101q0 11 1 17l1 11q1 5 4.5 8.5t8.5 3.5h131q11 0 11 -12q-3 -19 16 -31.5t50 -12.5q29 0 46 10.5t17 27.5q0 14 -16 21t-52 14q-59 13 -94 29q-42 19 -67 46.5t-25 72.5q0 13 1 20q10 78 74 123.5t160 45.5q91 0 144.5 -41.5t53.5 -110.5
q0 -13 -1 -20q-1 -5 -5 -8.5t-9 -3.5h-127q-5 0 -8 3.5t-2 8.5q2 19 -13.5 31t-45.5 12q-29 0 -47.5 -10.5t-18.5 -28.5q0 -16 18 -23.5t58 -14.5q53 -11 76 -19q52 -18 81 -47.5t29 -77.5q0 -13 -1 -20q-10 -78 -74.5 -120.5t-165.5 -42.5q-97 0 -153 38zM227.5 582
q-1.5 4 1.5 10l63 99q6 9 16 9h119q9 0 9 -6q0 -5 -4 -9l-83 -100q-6 -7 -15 -7h-99q-6 0 -7.5 4z" />
    <glyph glyph-name="Scircumflex" unicode="&#x15c;" horiz-adv-x="581" 
d="M97.5 42.5q-64.5 50.5 -64.5 137.5q0 9 2 29l3 19q1 5 4.5 8.5t8.5 3.5h135q5 0 8 -3.5t2 -8.5l-2 -12q-4 -33 25.5 -57.5t83.5 -24.5q46 0 68.5 21.5t22.5 47.5q0 24 -21 37.5t-76 33.5l-23 8q-56 20 -97 42t-70.5 60t-29.5 93q0 8 2 26q8 62 45.5 108.5t96.5 71.5
t130 25q69 0 122.5 -24t83.5 -68.5t30 -102.5q0 -9 -2 -29l-2 -14q0 -5 -4 -8.5t-9 -3.5h-134q-5 0 -8.5 3.5t-2.5 8.5l1 7q4 35 -22.5 62t-76.5 27q-41 0 -65 -18.5t-24 -51.5q0 -18 13 -31t39 -24.5t80 -31.5q61 -22 94.5 -38t63 -51.5t29.5 -91.5q0 -8 -2 -26
q-12 -97 -88.5 -153.5t-192.5 -56.5q-112 0 -176.5 50.5zM199 762q0 4 3 8l83 105q5 8 14 8h155q10 0 13 -8l59 -105q2 -4 2 -6q0 -4 -3.5 -6.5t-8.5 -2.5h-104q-10 0 -13 8l-26 53q-1 3 -3 3t-3 -3l-39 -53q-5 -8 -14 -8h-106q-9 0 -9 7z" />
    <glyph glyph-name="scircumflex" unicode="&#x15d;" horiz-adv-x="496" 
d="M81 30q-56 38 -56 101q0 11 1 17l1 11q1 5 4.5 8.5t8.5 3.5h131q11 0 11 -12q-3 -19 16 -31.5t50 -12.5q29 0 46 10.5t17 27.5q0 14 -16 21t-52 14q-59 13 -94 29q-42 19 -67 46.5t-25 72.5q0 13 1 20q10 78 74 123.5t160 45.5q91 0 144.5 -41.5t53.5 -110.5
q0 -13 -1 -20q-1 -5 -5 -8.5t-9 -3.5h-127q-5 0 -8 3.5t-2 8.5q2 19 -13.5 31t-45.5 12q-29 0 -47.5 -10.5t-18.5 -28.5q0 -16 18 -23.5t58 -14.5q53 -11 76 -19q52 -18 81 -47.5t29 -77.5q0 -13 -1 -20q-10 -78 -74.5 -120.5t-165.5 -42.5q-97 0 -153 38zM135 579q0 4 3 8
l83 105q5 8 14 8h155q10 0 13 -8l59 -105q2 -4 2 -6q0 -4 -3.5 -6.5t-8.5 -2.5h-104q-10 0 -13 8l-26 53q-1 3 -3 3t-3 -3l-39 -53q-5 -8 -14 -8h-106q-9 0 -9 7z" />
    <glyph glyph-name="Scedilla" unicode="&#x15e;" horiz-adv-x="581" 
d="M496.5 73.5q-60.5 -61.5 -158.5 -76.5q-6 -1 -3 -6q30 -36 30 -74q0 -18 -8 -37q-14 -35 -41.5 -50.5t-61.5 -15.5t-66 14q-8 3 -6 14l17 61q1 6 5.5 8t9.5 0q12 -4 17 -4q21 0 30 19q2 4 2 11q0 25 -34 56q-4 2 -6 2q-90 11 -140 60t-50 126q0 8 2 28l3 19q1 5 4.5 8.5
t8.5 3.5h135q5 0 8 -3.5t2 -8.5l-2 -12q-4 -33 25.5 -57.5t83.5 -24.5q46 0 68.5 21.5t22.5 47.5q0 24 -21 37.5t-76 33.5l-23 8q-56 20 -97 42t-70.5 60t-29.5 93q0 8 2 26q8 62 45.5 108.5t96.5 71.5t130 25q69 0 122.5 -24t83.5 -68.5t30 -102.5q0 -9 -2 -29l-2 -14
q0 -5 -4 -8.5t-9 -3.5h-134q-5 0 -8.5 3.5t-2.5 8.5l1 7q4 35 -22.5 62t-76.5 27q-41 0 -65 -18.5t-24 -51.5q0 -18 13 -31t39 -24.5t80 -31.5q61 -22 94.5 -38t63 -51.5t29.5 -91.5q0 -93 -60.5 -154.5z" />
    <glyph glyph-name="scedilla" unicode="&#x15f;" horiz-adv-x="496" 
d="M420 50.5q-46 -40.5 -121 -53.5q-6 -2 -2 -6q30 -36 30 -73q0 -17 -8 -38q-14 -35 -41.5 -50t-61.5 -15q-35 0 -65 13q-9 3 -6 14l15 61q1 6 5.5 8t9.5 0q12 -4 18 -4q22 0 30 19q2 4 2 12q0 25 -34 54q-4 2 -6 2q-75 10 -117.5 46.5t-42.5 90.5q0 11 1 17l1 11
q1 5 4.5 8.5t8.5 3.5h131q11 0 11 -12q-3 -19 16 -31.5t50 -12.5q29 0 46 10.5t17 27.5q0 14 -16 21t-52 14q-59 13 -94 29q-42 19 -67 46.5t-25 72.5q0 13 1 20q10 78 74 123.5t160 45.5q91 0 144.5 -41.5t53.5 -110.5q0 -13 -1 -20q-1 -5 -5 -8.5t-9 -3.5h-127
q-5 0 -8 3.5t-2 8.5q2 19 -13.5 31t-45.5 12q-29 0 -47.5 -10.5t-18.5 -28.5q0 -16 18 -23.5t58 -14.5q53 -11 76 -19q52 -18 81 -47.5t29 -77.5q0 -13 -1 -20q-8 -64 -54 -104.5z" />
    <glyph glyph-name="Scaron" unicode="&#x160;" horiz-adv-x="581" 
d="M97.5 42.5q-64.5 50.5 -64.5 137.5q0 9 2 29l3 19q1 5 4.5 8.5t8.5 3.5h135q5 0 8 -3.5t2 -8.5l-2 -12q-4 -33 25.5 -57.5t83.5 -24.5q46 0 68.5 21.5t22.5 47.5q0 24 -21 37.5t-76 33.5l-23 8q-56 20 -97 42t-70.5 60t-29.5 93q0 8 2 26q8 62 45.5 108.5t96.5 71.5
t130 25q69 0 122.5 -24t83.5 -68.5t30 -102.5q0 -9 -2 -29l-2 -14q0 -5 -4 -8.5t-9 -3.5h-134q-5 0 -8.5 3.5t-2.5 8.5l1 7q4 35 -22.5 62t-76.5 27q-41 0 -65 -18.5t-24 -51.5q0 -18 13 -31t39 -24.5t80 -31.5q61 -22 94.5 -38t63 -51.5t29.5 -91.5q0 -8 -2 -26
q-12 -97 -88.5 -153.5t-192.5 -56.5q-112 0 -176.5 50.5zM220 873q0 10 11 10h105q10 0 13 -8l25 -54q2 -3 4 -3t3 3l39 54q4 8 14 8h105q9 0 9 -7q0 -3 -3 -8l-85 -105q-5 -8 -14 -8h-155q-10 0 -13 8l-57 105q-1 2 -1 5z" />
    <glyph glyph-name="scaron" unicode="&#x161;" horiz-adv-x="496" 
d="M81 30q-56 38 -56 101q0 11 1 17l1 11q1 5 4.5 8.5t8.5 3.5h131q11 0 11 -12q-3 -19 16 -31.5t50 -12.5q29 0 46 10.5t17 27.5q0 14 -16 21t-52 14q-59 13 -94 29q-42 19 -67 46.5t-25 72.5q0 13 1 20q10 78 74 123.5t160 45.5q91 0 144.5 -41.5t53.5 -110.5
q0 -13 -1 -20q-1 -5 -5 -8.5t-9 -3.5h-127q-5 0 -8 3.5t-2 8.5q2 19 -13.5 31t-45.5 12q-29 0 -47.5 -10.5t-18.5 -28.5q0 -16 18 -23.5t58 -14.5q53 -11 76 -19q52 -18 81 -47.5t29 -77.5q0 -13 -1 -20q-10 -78 -74.5 -120.5t-165.5 -42.5q-97 0 -153 38zM156 690
q0 10 11 10h105q10 0 13 -8l25 -54q2 -3 4 -3t3 3l39 54q4 8 14 8h105q9 0 9 -7q0 -3 -3 -8l-85 -105q-5 -8 -14 -8h-155q-10 0 -13 8l-57 105q-1 2 -1 5z" />
    <glyph glyph-name="uni0162" unicode="&#x162;" horiz-adv-x="572" 
d="M613 696.5q3 -3.5 2 -8.5l-15 -119q0 -5 -4 -8.5t-9 -3.5h-169q-6 0 -6 -5l-66 -540q-1 -5 -4.5 -8.5t-8.5 -3.5h-138q-5 0 -8 3.5t-2 8.5l66 540q0 5 -4 5h-164q-5 0 -8 3.5t-2 8.5l14 119q1 5 4.5 8.5t8.5 3.5h505q5 0 8 -3.5zM212 -168l15 61q3 13 16 8q12 -4 18 -4
q10 0 17.5 5t11.5 14q2 4 2 12q0 27 -38 57q-5 5 -5 8q0 7 11 7h76q9 0 14 -5q44 -42 44 -88q0 -18 -8 -37q-13 -35 -40.5 -50t-61.5 -15q-36 0 -66 13q-9 3 -6 14z" />
    <glyph glyph-name="uni0163" unicode="&#x163;" horiz-adv-x="374" 
d="M375 387.5q-4 -3.5 -9 -3.5h-88q-5 0 -5 -5l-23 -182q-1 -5 -1 -14q0 -43 39 -43h36q5 0 8 -3.5t2 -8.5l-14 -116q-2 -11 -13 -13h-10q-3 0 -4.5 -2.5t0.5 -4.5q24 -32 24 -65q0 -17 -8 -38q-14 -35 -41.5 -50t-60.5 -15q-36 0 -66 13q-9 3 -6 14l16 61q3 12 15 8t17 -4
q22 0 30 19q3 6 3 12q0 23 -30 51q-4 2 -6 2q-47 7 -70.5 30.5t-23.5 71.5q0 7 2 27l30 250q2 5 -4 5h-55q-5 0 -8 3.5t-2 8.5l13 109q1 5 4.5 8.5t8.5 3.5h55q6 0 6 5l15 121q1 5 4.5 8.5t8.5 3.5h131q5 0 8 -3.5t2 -8.5l-15 -121q0 -5 4 -5h89q5 0 8 -3.5t2 -8.5l-14 -109
q0 -5 -4 -8.5z" />
    <glyph glyph-name="Tcaron" unicode="&#x164;" horiz-adv-x="572" 
d="M613 696.5q3 -3.5 2 -8.5l-15 -119q0 -5 -4 -8.5t-9 -3.5h-169q-6 0 -6 -5l-66 -540q-1 -5 -4.5 -8.5t-8.5 -3.5h-138q-5 0 -8 3.5t-2 8.5l66 540q0 5 -4 5h-164q-5 0 -8 3.5t-2 8.5l14 119q1 5 4.5 8.5t8.5 3.5h505q5 0 8 -3.5zM215 872q0 10 11 10h105q10 0 13 -8
l25 -54q2 -3 4 -3t3 3l39 54q4 8 14 8h105q9 0 9 -7q0 -3 -3 -8l-85 -105q-5 -8 -14 -8h-155q-10 0 -13 8l-57 105q-1 2 -1 5z" />
    <glyph glyph-name="tcaron" unicode="&#x165;" horiz-adv-x="374" 
d="M375 387.5q-4 -3.5 -9 -3.5h-88q-5 0 -5 -5l-23 -182q-1 -5 -1 -14q0 -43 39 -43h36q5 0 8 -3.5t2 -8.5l-14 -116q-2 -11 -13 -13q-48 -2 -69 -2q-77 0 -114.5 22t-37.5 82q0 8 2 28l30 250q2 5 -4 5h-55q-5 0 -8 3.5t-2 8.5l13 109q1 5 4.5 8.5t8.5 3.5h55q6 0 6 5
l15 121q1 5 4.5 8.5t8.5 3.5h131q5 0 8 -3.5t2 -8.5l-15 -121q0 -5 4 -5h89q5 0 8 -3.5t2 -8.5l-14 -109q0 -5 -4 -8.5zM313.5 582q-1.5 4 1.5 10l63 99q6 9 16 9h119q9 0 9 -6q0 -5 -4 -9l-83 -100q-6 -7 -15 -7h-99q-6 0 -7.5 4z" />
    <glyph glyph-name="Tbar" unicode="&#x166;" horiz-adv-x="572" 
d="M596 560.5q-4 -3.5 -9 -3.5h-169q-6 0 -6 -5l-17 -141q-2 -5 4 -5h88q5 0 8 -3.5t2 -8.5l-9 -74q0 -5 -4 -8.5t-9 -3.5h-88q-5 0 -5 -5l-36 -291q-1 -5 -4.5 -8.5t-8.5 -3.5h-138q-5 0 -8 3.5t-2 8.5l36 291q0 5 -5 5h-73q-11 0 -11 12l9 74q1 5 5 8.5t9 3.5h73q4 0 6 5
l17 141q0 5 -4 5h-164q-5 0 -8 3.5t-2 8.5l14 119q1 5 4.5 8.5t8.5 3.5h505q5 0 8 -3.5t2 -8.5l-15 -119q0 -5 -4 -8.5z" />
    <glyph glyph-name="tbar" unicode="&#x167;" horiz-adv-x="374" 
d="M375 387.5q-4 -3.5 -9 -3.5h-88q-5 0 -5 -5l-4 -28q0 -5 4 -5h88q5 0 8 -3.5t2 -8.5l-9 -75q-1 -5 -5 -8.5t-9 -3.5h-87q-5 0 -5 -5l-6 -45q-1 -5 -1 -14q0 -43 39 -43h36q5 0 8 -3.5t2 -8.5l-14 -116q-2 -11 -13 -13q-48 -2 -69 -2q-77 0 -114.5 22t-37.5 82q0 8 2 28
l13 113q2 5 -4 5h-54q-5 0 -8 3.5t-2 8.5l9 75q1 5 4.5 8.5t8.5 3.5h54q6 0 6 5l3 28q2 5 -4 5h-55q-5 0 -8 3.5t-2 8.5l13 109q1 5 4.5 8.5t8.5 3.5h55q6 0 6 5l15 121q1 5 4.5 8.5t8.5 3.5h131q5 0 8 -3.5t2 -8.5l-15 -121q0 -5 4 -5h89q5 0 8 -3.5t2 -8.5l-14 -109
q0 -5 -4 -8.5z" />
    <glyph glyph-name="Utilde" unicode="&#x168;" horiz-adv-x="604" 
d="M113.5 49q-62.5 57 -62.5 153q0 12 2 36l56 450q1 5 4.5 8.5t8.5 3.5h138q5 0 8 -3.5t2 -8.5l-56 -450q-1 -5 -1 -16q0 -40 23.5 -64t63.5 -24q43 0 73.5 28.5t35.5 75.5l56 450q1 5 4.5 8.5t8.5 3.5h138q5 0 8 -3.5t2 -8.5l-56 -450q-9 -73 -48 -129t-101 -86.5
t-139 -30.5q-106 0 -168.5 57zM401.5 750q-13.5 4 -29.5 13q-18 9 -27.5 12t-19.5 3q-32 0 -54 -20q-11 -10 -17 -1l-42 54q-3 5 -3 8q0 4 3 8q20 30 50.5 48.5t66.5 18.5q19 0 33.5 -5t26 -10.5t14.5 -7.5q12 -7 24 -11.5t23 -4.5q27 0 48 22q11 11 16 1l37 -56q5 -7 2 -13
q-15 -27 -46 -45t-71 -18q-21 0 -34.5 4z" />
    <glyph glyph-name="utilde" unicode="&#x169;" 
d="M377.5 513.5q3.5 3.5 8.5 3.5h138q5 0 8 -3.5t2 -8.5l-60 -493q-1 -5 -4.5 -8.5t-8.5 -3.5h-138q-5 0 -8 3.5t-2 8.5l4 35q1 3 -1 4t-4 -2q-46 -57 -130 -57q-66 0 -105 38.5t-39 109.5q0 22 2 34l40 331q1 5 5 8.5t9 3.5h137q5 0 8 -3.5t2 -8.5l-36 -293l-1 -13
q0 -30 15 -47t42 -17t47 17t28 45l37 308q1 5 4.5 8.5zM341.5 567q-13.5 4 -29.5 13q-18 9 -27.5 12t-19.5 3q-32 0 -54 -20q-11 -10 -17 -1l-42 54q-3 5 -3 8q0 4 3 8q20 30 50.5 48.5t66.5 18.5q19 0 33.5 -5t26 -10.5t14.5 -7.5q12 -7 24 -11.5t23 -4.5q27 0 48 22
q11 11 16 1l37 -56q5 -7 2 -13q-15 -27 -46 -45t-71 -18q-21 0 -34.5 4z" />
    <glyph glyph-name="Umacron" unicode="&#x16a;" horiz-adv-x="604" 
d="M113.5 49q-62.5 57 -62.5 153q0 12 2 36l56 450q1 5 4.5 8.5t8.5 3.5h138q5 0 8 -3.5t2 -8.5l-56 -450q-1 -5 -1 -16q0 -40 23.5 -64t63.5 -24q43 0 73.5 28.5t35.5 75.5l56 450q1 5 4.5 8.5t8.5 3.5h138q5 0 8 -3.5t2 -8.5l-56 -450q-9 -73 -48 -129t-101 -86.5
t-139 -30.5q-106 0 -168.5 57zM232 758.5q-3 3.5 -2 8.5l11 87q1 5 4.5 8.5t8.5 3.5h271q5 0 8 -3.5t2 -8.5l-11 -87q-1 -5 -4.5 -8.5t-8.5 -3.5h-271q-5 0 -8 3.5z" />
    <glyph glyph-name="umacron" unicode="&#x16b;" 
d="M377.5 513.5q3.5 3.5 8.5 3.5h138q5 0 8 -3.5t2 -8.5l-60 -493q-1 -5 -4.5 -8.5t-8.5 -3.5h-138q-5 0 -8 3.5t-2 8.5l4 35q1 3 -1 4t-4 -2q-46 -57 -130 -57q-66 0 -105 38.5t-39 109.5q0 22 2 34l40 331q1 5 5 8.5t9 3.5h137q5 0 8 -3.5t2 -8.5l-36 -293l-1 -13
q0 -30 15 -47t42 -17t47 17t28 45l37 308q1 5 4.5 8.5zM172 575.5q-3 3.5 -2 8.5l11 87q1 5 4.5 8.5t8.5 3.5h271q5 0 8 -3.5t2 -8.5l-11 -87q-1 -5 -4.5 -8.5t-8.5 -3.5h-271q-5 0 -8 3.5z" />
    <glyph glyph-name="Ubreve" unicode="&#x16c;" horiz-adv-x="604" 
d="M113.5 49q-62.5 57 -62.5 153q0 12 2 36l56 450q1 5 4.5 8.5t8.5 3.5h138q5 0 8 -3.5t2 -8.5l-56 -450q-1 -5 -1 -16q0 -40 23.5 -64t63.5 -24q43 0 73.5 28.5t35.5 75.5l56 450q1 5 4.5 8.5t8.5 3.5h138q5 0 8 -3.5t2 -8.5l-56 -450q-9 -73 -48 -129t-101 -86.5
t-139 -30.5q-106 0 -168.5 57zM265.5 775.5q-41.5 32.5 -41.5 83.5q0 15 12 15h71q9 0 11 -11q2 -20 20 -32t46 -12t49 12t29 32q3 11 13 11h69q12 0 10 -9q-11 -53 -61 -87.5t-119 -34.5q-67 0 -108.5 32.5z" />
    <glyph glyph-name="ubreve" unicode="&#x16d;" 
d="M377.5 513.5q3.5 3.5 8.5 3.5h138q5 0 8 -3.5t2 -8.5l-60 -493q-1 -5 -4.5 -8.5t-8.5 -3.5h-138q-5 0 -8 3.5t-2 8.5l4 35q1 3 -1 4t-4 -2q-46 -57 -130 -57q-66 0 -105 38.5t-39 109.5q0 22 2 34l40 331q1 5 5 8.5t9 3.5h137q5 0 8 -3.5t2 -8.5l-36 -293l-1 -13
q0 -30 15 -47t42 -17t47 17t28 45l37 308q1 5 4.5 8.5zM205.5 592.5q-41.5 32.5 -41.5 83.5q0 15 12 15h71q9 0 11 -11q2 -20 20 -32t46 -12t49 12t29 32q3 11 13 11h69q12 0 10 -9q-11 -53 -61 -87.5t-119 -34.5q-67 0 -108.5 32.5z" />
    <glyph glyph-name="Uring" unicode="&#x16e;" horiz-adv-x="604" 
d="M113.5 49q-62.5 57 -62.5 153q0 12 2 36l56 450q1 5 4.5 8.5t8.5 3.5h138q5 0 8 -3.5t2 -8.5l-56 -450q-1 -5 -1 -16q0 -40 23.5 -64t63.5 -24q43 0 73.5 28.5t35.5 75.5l56 450q1 5 4.5 8.5t8.5 3.5h138q5 0 8 -3.5t2 -8.5l-56 -450q-9 -73 -48 -129t-101 -86.5
t-139 -30.5q-106 0 -168.5 57zM294 771.5q-31 31.5 -31 79.5q0 40 19.5 74t52.5 54t71 20q49 0 80.5 -31.5t31.5 -80.5q0 -40 -19.5 -74t-52.5 -53.5t-72 -19.5q-49 0 -80 31.5zM419 840.5q15 15.5 15 36.5q0 17 -11 28t-28 11q-19 0 -33.5 -15.5t-14.5 -36.5
q0 -17 10.5 -28t26.5 -11q20 0 35 15.5z" />
    <glyph glyph-name="uring" unicode="&#x16f;" 
d="M377.5 513.5q3.5 3.5 8.5 3.5h138q5 0 8 -3.5t2 -8.5l-60 -493q-1 -5 -4.5 -8.5t-8.5 -3.5h-138q-5 0 -8 3.5t-2 8.5l4 35q1 3 -1 4t-4 -2q-46 -57 -130 -57q-66 0 -105 38.5t-39 109.5q0 22 2 34l40 331q1 5 5 8.5t9 3.5h137q5 0 8 -3.5t2 -8.5l-36 -293l-1 -13
q0 -30 15 -47t42 -17t47 17t28 45l37 308q1 5 4.5 8.5zM234 588.5q-31 31.5 -31 79.5q0 40 19.5 74t52.5 54t71 20q49 0 80.5 -31.5t31.5 -80.5q0 -40 -19.5 -74t-52.5 -53.5t-72 -19.5q-49 0 -80 31.5zM359 657.5q15 15.5 15 36.5q0 17 -11 28t-28 11q-19 0 -33.5 -15.5
t-14.5 -36.5q0 -17 10.5 -28t26.5 -11q20 0 35 15.5z" />
    <glyph glyph-name="Uhungarumlaut" unicode="&#x170;" horiz-adv-x="604" 
d="M113.5 49q-62.5 57 -62.5 153q0 12 2 36l56 450q1 5 4.5 8.5t8.5 3.5h138q5 0 8 -3.5t2 -8.5l-56 -450q-1 -5 -1 -16q0 -40 23.5 -64t63.5 -24q43 0 73.5 28.5t35.5 75.5l56 450q1 5 4.5 8.5t8.5 3.5h138q5 0 8 -3.5t2 -8.5l-56 -450q-9 -73 -48 -129t-101 -86.5
t-139 -30.5q-106 0 -168.5 57zM228 764.5q-2 3.5 2 10.5l54 99q5 9 15 9h121q7 0 9 -3.5t-2 -10.5l-62 -99q-6 -9 -15 -9h-113q-7 0 -9 3.5zM406 765q-2 4 2 10l63 99q2 4 6.5 6.5t8.5 2.5h114q9 0 9 -6q0 -3 -3 -8l-63 -99q-2 -4 -6.5 -6.5t-8.5 -2.5h-113q-7 0 -9 4z" />
    <glyph glyph-name="uhungarumlaut" unicode="&#x171;" 
d="M377.5 513.5q3.5 3.5 8.5 3.5h138q5 0 8 -3.5t2 -8.5l-60 -493q-1 -5 -4.5 -8.5t-8.5 -3.5h-138q-5 0 -8 3.5t-2 8.5l4 35q1 3 -1 4t-4 -2q-46 -57 -130 -57q-66 0 -105 38.5t-39 109.5q0 22 2 34l40 331q1 5 5 8.5t9 3.5h137q5 0 8 -3.5t2 -8.5l-36 -293l-1 -13
q0 -30 15 -47t42 -17t47 17t28 45l37 308q1 5 4.5 8.5zM168 581.5q-2 3.5 2 10.5l54 99q5 9 15 9h121q7 0 9 -3.5t-2 -10.5l-62 -99q-6 -9 -15 -9h-113q-7 0 -9 3.5zM346 582q-2 4 2 10l63 99q2 4 6.5 6.5t8.5 2.5h114q9 0 9 -6q0 -3 -3 -8l-63 -99q-2 -4 -6.5 -6.5
t-8.5 -2.5h-113q-7 0 -9 4z" />
    <glyph glyph-name="Uogonek" unicode="&#x172;" horiz-adv-x="604" 
d="M469.5 696.5q3.5 3.5 8.5 3.5h138q5 0 8 -3.5t2 -8.5l-56 -450q-12 -100 -78 -165t-166 -79q-2 0 -6 -2q-40 -31 -40 -56q0 -10 7 -16.5t18 -6.5q6 0 18 4q2 1 6 1q8 0 8 -9v-61q0 -11 -9 -14q-33 -13 -69 -13q-34 0 -57.5 15t-29.5 50q-1 4 -1 13q0 47 46 93q3 2 2.5 4
t-3.5 2q-78 17 -121.5 70.5t-43.5 134.5q0 11 2 35l56 450q1 5 4.5 8.5t8.5 3.5h138q5 0 8 -3.5t2 -8.5l-56 -450q-1 -5 -1 -16q0 -40 23.5 -64t63.5 -24q43 0 73.5 28.5t35.5 75.5l56 450q1 5 4.5 8.5z" />
    <glyph glyph-name="uogonek" unicode="&#x173;" 
d="M449 -98q7 0 7 -9l1 -61q0 -11 -10 -14q-33 -13 -69 -13q-38 0 -62.5 18.5t-24.5 61.5q0 56 65 109q3 2 2.5 4t-3.5 2h-32q-5 0 -8 3.5t-2 8.5l4 35q1 3 -1 4t-4 -2q-46 -57 -130 -57q-66 0 -105 38.5t-39 109.5q0 22 2 34l40 331q1 5 5 8.5t9 3.5h137q5 0 8 -3.5t2 -8.5
l-36 -293l-1 -13q0 -30 15 -47t42 -17t47 17t28 45l37 308q1 5 4.5 8.5t8.5 3.5h138q5 0 8 -3.5t2 -8.5l-61 -501q0 -4 -4 -6q-3 -3 -8 -6t-9 -7q-28 -19 -41.5 -37t-11.5 -32q1 -9 8 -14t17 -5q5 0 19 4q2 1 6 1z" />
    <glyph glyph-name="Wcircumflex" unicode="&#x174;" horiz-adv-x="901" 
d="M185 10l-98 677v2q0 11 12 11h147q10 0 11 -10l40 -364q0 -4 2.5 -4t3.5 4l120 363q3 11 14 11h135q10 0 11 -10l40 -364q0 -4 2.5 -4t3.5 4l123 363q3 11 14 11h143q14 0 10 -13l-248 -677q-3 -10 -14 -10h-139q-11 0 -11 11l-37 386q-1 4 -3 4t-3 -4l-123 -386
q-3 -11 -14 -11h-130q-10 0 -12 10zM361 762q0 4 3 8l83 105q5 8 14 8h155q10 0 13 -8l59 -105q2 -4 2 -6q0 -4 -3.5 -6.5t-8.5 -2.5h-104q-10 0 -13 8l-26 53q-1 3 -3 3t-3 -3l-39 -53q-5 -8 -14 -8h-106q-9 0 -9 7z" />
    <glyph glyph-name="wcircumflex" unicode="&#x175;" horiz-adv-x="781" 
d="M141 10l-80 494v2q0 5 3 8.5t8 3.5h143q11 0 11 -11l25 -271q0 -4 2.5 -4t3.5 4l96 272q4 10 14 10h124q12 0 13 -10l32 -273q1 -3 3 -3t3 3l98 273q4 10 15 10l142 -2q5 0 7.5 -3.5t0.5 -9.5l-203 -493q-5 -10 -14 -10h-143q-10 0 -12 10l-36 233q0 3 -2 3t-3 -3
l-83 -233q-4 -10 -14 -10h-143q-9 0 -11 10zM272 579q0 4 3 8l83 105q5 8 14 8h155q10 0 13 -8l59 -105q2 -4 2 -6q0 -4 -3.5 -6.5t-8.5 -2.5h-104q-10 0 -13 8l-26 53q-1 3 -3 3t-3 -3l-39 -53q-5 -8 -14 -8h-106q-9 0 -9 7z" />
    <glyph glyph-name="Ycircumflex" unicode="&#x176;" horiz-adv-x="616" 
d="M211 5.5q-3 3.5 -2 8.5l29 237q2 3 0 6l-146 429q-1 2 -1 5q0 9 11 9h150q9 0 12 -9l75 -253q2 -6 6 0l138 253q4 9 14 9h151q6 0 8.5 -3.5t-1.5 -10.5l-255 -429l-2 -6l-29 -237q-1 -5 -4.5 -8.5t-8.5 -3.5h-137q-5 0 -8 3.5zM218 762q0 4 3 8l83 105q5 8 14 8h155
q10 0 13 -8l59 -105q2 -4 2 -6q0 -4 -3.5 -6.5t-8.5 -2.5h-104q-10 0 -13 8l-26 53q-1 3 -3 3t-3 -3l-39 -53q-5 -8 -14 -8h-106q-9 0 -9 7z" />
    <glyph glyph-name="ycircumflex" unicode="&#x177;" horiz-adv-x="505" 
d="M-4 -187l14 112q1 5 4.5 8.5t7.5 3.5q62 0 90.5 11.5t39.5 48.5q1 2 1 6l-95 501v3q0 5 3 8t8 3h147q10 0 11 -10l31 -296q0 -4 2.5 -4t3.5 4l103 296q4 10 14 10h143q6 0 8.5 -3.5t-0.5 -10.5l-227 -514q-34 -75 -65 -113.5t-84 -57t-147 -18.5h-7q-6 0 -6 12zM141 590
q0 4 3 8l83 105q5 8 14 8h155q10 0 13 -8l59 -105q2 -4 2 -6q0 -4 -3.5 -6.5t-8.5 -2.5h-104q-10 0 -13 8l-26 53q-1 3 -3 3t-3 -3l-39 -53q-5 -8 -14 -8h-106q-9 0 -9 7z" />
    <glyph glyph-name="Ydieresis" unicode="&#x178;" horiz-adv-x="616" 
d="M211 5.5q-3 3.5 -2 8.5l29 237q2 3 0 6l-146 429q-1 2 -1 5q0 9 11 9h150q9 0 12 -9l75 -253q2 -6 6 0l138 253q4 9 14 9h151q6 0 8.5 -3.5t-1.5 -10.5l-255 -429l-2 -6l-29 -237q-1 -5 -4.5 -8.5t-8.5 -3.5h-137q-5 0 -8 3.5zM427.5 775q-20.5 21 -20.5 54q0 43 28 71
t68 28q34 0 54 -20t20 -54q0 -42 -28 -71t-67 -29q-34 0 -54.5 21zM224.5 775q-20.5 21 -20.5 54q0 43 28 71t68 28q34 0 54 -20t20 -54q0 -42 -28 -71t-67 -29q-34 0 -54.5 21z" />
    <glyph glyph-name="Zacute" unicode="&#x179;" horiz-adv-x="543" 
d="M11 3.5q-3 3.5 -2 8.5l16 130q2 10 7 15l345 395q2 2 1.5 4t-3.5 2h-287q-5 0 -8 3.5t-2 8.5l14 118q1 5 4.5 8.5t8.5 3.5h462q5 0 8 -3.5t2 -8.5l-16 -130q0 -7 -6 -15l-348 -395q-1 -2 -0.5 -4t2.5 -2h290q5 0 8 -3.5t2 -8.5l-15 -118q-1 -5 -4.5 -8.5t-8.5 -3.5h-462
q-5 0 -8 3.5zM275.5 765q-1.5 4 1.5 10l63 99q6 9 16 9h119q9 0 9 -6q0 -5 -4 -9l-83 -100q-6 -7 -15 -7h-99q-6 0 -7.5 4z" />
    <glyph glyph-name="zacute" unicode="&#x17a;" horiz-adv-x="451" 
d="M2 12l16 129q2 10 8 15l224 205q2 2 1.5 4t-3.5 2h-185q-5 0 -8 3.5t-2 8.5l16 126q1 5 4.5 8.5t8.5 3.5h372q11 0 11 -12l-16 -129q-2 -10 -8 -15l-232 -205q-2 -2 -1 -4t3 -2h204q5 0 8 -3.5t2 -8.5l-15 -126q-1 -5 -4.5 -8.5t-8.5 -3.5h-384q-11 0 -11 12zM203.5 582
q-1.5 4 1.5 10l63 99q6 9 16 9h119q9 0 9 -6q0 -5 -4 -9l-83 -100q-6 -7 -15 -7h-99q-6 0 -7.5 4z" />
    <glyph glyph-name="Zdotaccent" unicode="&#x17b;" horiz-adv-x="543" 
d="M11 3.5q-3 3.5 -2 8.5l16 130q2 10 7 15l345 395q2 2 1.5 4t-3.5 2h-287q-5 0 -8 3.5t-2 8.5l14 118q1 5 4.5 8.5t8.5 3.5h462q5 0 8 -3.5t2 -8.5l-16 -130q0 -7 -6 -15l-348 -395q-1 -2 -0.5 -4t2.5 -2h290q5 0 8 -3.5t2 -8.5l-15 -118q-1 -5 -4.5 -8.5t-8.5 -3.5h-462
q-5 0 -8 3.5zM290.5 767q-20.5 21 -20.5 54q0 43 28 71t68 28q34 0 54 -20t20 -54q0 -42 -28 -71t-67 -29q-34 0 -54.5 21z" />
    <glyph glyph-name="zdotaccent" unicode="&#x17c;" horiz-adv-x="451" 
d="M2 12l16 129q2 10 8 15l224 205q2 2 1.5 4t-3.5 2h-185q-5 0 -8 3.5t-2 8.5l16 126q1 5 4.5 8.5t8.5 3.5h372q11 0 11 -12l-16 -129q-2 -10 -8 -15l-232 -205q-2 -2 -1 -4t3 -2h204q5 0 8 -3.5t2 -8.5l-15 -126q-1 -5 -4.5 -8.5t-8.5 -3.5h-384q-11 0 -11 12zM218.5 584
q-20.5 21 -20.5 54q0 43 28 71t68 28q34 0 54 -20t20 -54q0 -42 -28 -71t-67 -29q-34 0 -54.5 21z" />
    <glyph glyph-name="Zcaron" unicode="&#x17d;" horiz-adv-x="543" 
d="M11 3.5q-3 3.5 -2 8.5l16 130q2 10 7 15l345 395q2 2 1.5 4t-3.5 2h-287q-5 0 -8 3.5t-2 8.5l14 118q1 5 4.5 8.5t8.5 3.5h462q5 0 8 -3.5t2 -8.5l-16 -130q0 -7 -6 -15l-348 -395q-1 -2 -0.5 -4t2.5 -2h290q5 0 8 -3.5t2 -8.5l-15 -118q-1 -5 -4.5 -8.5t-8.5 -3.5h-462
q-5 0 -8 3.5zM204 873q0 10 11 10h105q10 0 13 -8l25 -54q2 -3 4 -3t3 3l39 54q4 8 14 8h105q9 0 9 -7q0 -3 -3 -8l-85 -105q-5 -8 -14 -8h-155q-10 0 -13 8l-57 105q-1 2 -1 5z" />
    <glyph glyph-name="zcaron" unicode="&#x17e;" horiz-adv-x="451" 
d="M2 12l16 129q2 10 8 15l224 205q2 2 1.5 4t-3.5 2h-185q-5 0 -8 3.5t-2 8.5l16 126q1 5 4.5 8.5t8.5 3.5h372q11 0 11 -12l-16 -129q-2 -10 -8 -15l-232 -205q-2 -2 -1 -4t3 -2h204q5 0 8 -3.5t2 -8.5l-15 -126q-1 -5 -4.5 -8.5t-8.5 -3.5h-384q-11 0 -11 12zM132 690
q0 10 11 10h105q10 0 13 -8l25 -54q2 -3 4 -3t3 3l39 54q4 8 14 8h105q9 0 9 -7q0 -3 -3 -8l-85 -105q-5 -8 -14 -8h-155q-10 0 -13 8l-57 105q-1 2 -1 5z" />
    <glyph glyph-name="uni018F" unicode="&#x18f;" horiz-adv-x="663" 
d="M654 418q0 -31 -5 -78q-10 -84 -35 -146q-40 -95 -120 -150.5t-181 -55.5q-128 0 -194 74t-68 201q0 58 12 128q2 12 13 12h414q5 0 5 5q1 33 -7 61q-22 90 -137 90q-93 -1 -152 -80q-4 -6 -9 -6q-3 0 -7 4l-78 83q-4 6 -4 8q0 3 4 9q49 60 119.5 92t157.5 32
q104 0 171.5 -50t90.5 -142q10 -41 10 -91zM410.5 156.5q33.5 24.5 52.5 68.5q11 32 15 48q1 2 0 3.5t-3 1.5h-258q-2 0 -3.5 -1.5t-1.5 -3.5v-14q0 -22 1 -30q7 -45 37.5 -71t79.5 -26q47 0 80.5 24.5z" />
    <glyph glyph-name="florin" unicode="&#x192;" horiz-adv-x="540" 
d="M460 569q-14 -14 -22 -41l-26 -94q0 -5 3 -5h66q11 0 11 -12l-14 -111q-1 -5 -4.5 -8.5t-8.5 -3.5h-86q-2 0 -4.5 -1.5t-2.5 -3.5l-94 -339q-16 -58 -42.5 -91t-70 -47.5t-113.5 -14.5q-18 0 -62 2q-12 1 -10 13l11 91q1 5 4.5 8.5t8.5 3.5h53q22 0 39.5 13.5t25.5 43.5
l88 317q0 5 -3 5h-58q-11 0 -11 12l14 111q1 5 4.5 8.5t8.5 3.5h80q6 0 6 5l32 116q16 60 41.5 93t67.5 47t110 14q31 0 69 -3q12 -1 10 -13l-11 -91q-1 -5 -4.5 -8.5t-8.5 -3.5h-56q-27 -2 -41 -16z" />
    <glyph glyph-name="Ohorn" unicode="&#x1a0;" horiz-adv-x="602" 
d="M551 637q53 -58 53 -147q0 -19 -3 -40l-24 -200q-9 -78 -49.5 -137t-104.5 -91.5t-143 -32.5q-108 0 -171 60t-63 162q0 25 2 39l25 200q9 76 49.5 134.5t104 91t141.5 32.5q47 0 86 -12q2 -1 3.5 0.5t2.5 1.5q4 2 10 2q65 7 79 78q2 12 14 12h72q5 0 7.5 -4.5t1.5 -12.5
q-18 -89 -92 -129q-5 -3 -1 -7zM441 452q1 6 1 18q0 44 -24.5 70t-66.5 26q-46 0 -78.5 -31.5t-38.5 -82.5l-25 -207q-1 -7 -1 -20q0 -44 24 -69t65 -25q47 0 79.5 31.5t38.5 82.5z" />
    <glyph glyph-name="ohorn" unicode="&#x1a1;" horiz-adv-x="537" 
d="M527 304q0 -28 -2 -42q-6 -49 -22 -88q-30 -84 -97 -133t-156 -49q-87 0 -142 48t-66 130q-3 21 -3 43q0 23 3 47q6 54 24 97q33 79 99 123.5t152 44.5q30 0 61 -7q2 -1 6 -1q65 8 79 78q2 12 13 12h73q12 0 10 -12q-15 -87 -81 -127q-5 -3 -2 -7q36 -41 47 -103
q4 -23 4 -54zM363 260q2 22 2 31q0 43 -16.5 67.5t-50.5 24.5q-56 0 -81 -65q-10 -27 -13 -58q-3 -19 -3 -37q0 -40 17 -64.5t50 -24.5q28 0 49 18.5t33 50.5q8 22 13 57z" />
    <glyph glyph-name="Uhorn" unicode="&#x1af;" horiz-adv-x="604" 
d="M749 778q-11 -61 -45 -97.5t-82 -51.5q-4 -1 -4 -5l-48 -386q-9 -73 -48 -129t-101 -86.5t-139 -30.5q-106 0 -168.5 57t-62.5 153q0 12 2 36l56 450q1 5 4.5 8.5t8.5 3.5h138q5 0 8 -3.5t2 -8.5l-56 -450q-1 -5 -1 -16q0 -40 23.5 -64t63.5 -24q43 0 73.5 28.5
t35.5 75.5l56 450q1 5 4.5 8.5t8.5 3.5h84q76 0 91 78q1 6 4.5 9t8.5 3h73q12 0 10 -12z" />
    <glyph glyph-name="uhorn" unicode="&#x1b0;" 
d="M650 595q-11 -58 -42.5 -94t-76.5 -52q-4 -1 -4 -5l-53 -432q-1 -5 -4.5 -8.5t-8.5 -3.5h-138q-5 0 -8 3.5t-2 8.5l4 35q1 3 -1 4t-4 -2q-46 -57 -130 -57q-66 0 -105 38.5t-39 109.5q0 22 2 34l40 331q1 5 5 8.5t9 3.5h137q5 0 8 -3.5t2 -8.5l-36 -293l-1 -13
q0 -30 15 -47t42 -17t47 17t28 45l37 308q1 5 4.5 8.5t8.5 3.5h77q76 0 91 78q1 6 4.5 9t8.5 3h73q12 0 10 -12z" />
    <glyph glyph-name="uni01CD" unicode="&#x1cd;" horiz-adv-x="673" 
d="M463 3q-3 3 -4 7l-14 89q-2 4 -5 4h-221q-3 0 -5 -4l-36 -89q-5 -10 -15 -10h-148q-6 0 -8.5 3.5t0.5 10.5l290 676q5 10 14 10h183q9 0 12 -10l125 -676v-4q0 -10 -11 -10h-149q-5 0 -8 3zM273 231h144q5 0 5 6l-42 257q-1 4 -3 3.5t-3 -3.5l-104 -257q-3 -6 3 -6z
M267 872q0 10 11 10h105q10 0 13 -8l25 -54q2 -3 4 -3t3 3l39 54q4 8 14 8h105q9 0 9 -7q0 -3 -3 -8l-85 -105q-5 -8 -14 -8h-155q-10 0 -13 8l-57 105q-1 2 -1 5z" />
    <glyph glyph-name="uni01CE" unicode="&#x1ce;" horiz-adv-x="518" 
d="M398.5 513.5q3.5 3.5 8.5 3.5h138q5 0 8 -3.5t2 -8.5l-61 -493q-1 -5 -4.5 -8.5t-8.5 -3.5h-138q-5 0 -8 3.5t-2 8.5l5 38q0 3 -1.5 4t-4.5 -2q-47 -60 -123 -60q-65 0 -110.5 41.5t-57.5 112.5q-4 21 -4 48q0 28 5 66q8 74 35 128q28 60 82 98.5t122 38.5q74 0 103 -51
q2 -3 4 -2t2 4l4 29q1 5 4.5 8.5zM363 258q3 24 3 41q0 23 -6 41q-6 20 -20.5 31.5t-36.5 11.5q-23 0 -41 -12t-29 -33q-16 -27 -23 -80q-2 -14 -2 -38q0 -26 5 -41q6 -20 21.5 -32.5t38.5 -12.5q44 0 68 46q17 28 22 78zM169 690q0 10 11 10h105q10 0 13 -8l25 -54
q2 -3 4 -3t3 3l39 54q4 8 14 8h105q9 0 9 -7q0 -3 -3 -8l-85 -105q-5 -8 -14 -8h-155q-10 0 -13 8l-57 105q-1 2 -1 5z" />
    <glyph glyph-name="uni01D4" unicode="&#x1d4;" 
d="M377.5 513.5q3.5 3.5 8.5 3.5h138q5 0 8 -3.5t2 -8.5l-60 -493q-1 -5 -4.5 -8.5t-8.5 -3.5h-138q-5 0 -8 3.5t-2 8.5l4 35q1 3 -1 4t-4 -2q-46 -57 -130 -57q-66 0 -105 38.5t-39 109.5q0 22 2 34l40 331q1 5 5 8.5t9 3.5h137q5 0 8 -3.5t2 -8.5l-36 -293l-1 -13
q0 -30 15 -47t42 -17t47 17t28 45l37 308q1 5 4.5 8.5zM174 690q0 10 11 10h105q10 0 13 -8l25 -54q2 -3 4 -3t3 3l39 54q4 8 14 8h105q9 0 9 -7q0 -3 -3 -8l-85 -105q-5 -8 -14 -8h-155q-10 0 -13 8l-57 105q-1 2 -1 5z" />
    <glyph glyph-name="uni01E5" unicode="&#x1e5;" horiz-adv-x="569" 
d="M586 307.5q3 -3.5 2 -8.5l-9 -74q-1 -5 -5 -8.5t-9 -3.5h-47q-4 0 -6 -5l-18 -150q-17 -137 -100.5 -196t-201.5 -59q-45 0 -91 8q-9 1 -8 13l20 124q1 13 15 10q38 -9 73 -9q55 0 90 26t42 82l-8 -7q-39 -36 -105 -36q-64 0 -114 29t-64 102q-5 23 -5 56q0 24 4 62
q9 74 34 126q30 62 83.5 99t118.5 37q71 0 102 -44q2 -2 4 -1.5t2 3.5l3 22q1 5 4.5 8.5t8.5 3.5h138q5 0 8 -3.5t2 -8.5l-23 -189q-2 -5 4 -5h48q5 0 8 -3.5zM348 208q2 5 -4 5h-80q-5 0 -8 3.5t-2 8.5l9 74q1 5 4.5 8.5t8.5 3.5h80q5 0 5 5q0 8 -4 20q-5 22 -20 34.5
t-40 12.5q-45 0 -70 -47q-19 -28 -24 -74q-2 -12 -2 -33q0 -24 6 -39q5 -21 21 -34t41 -13q49 0 71 46q6 12 8 19z" />
    <glyph glyph-name="gcaron" unicode="&#x1e7;" horiz-adv-x="546" 
d="M392.5 513.5q3.5 3.5 8.5 3.5h138q5 0 8 -3.5t2 -8.5l-55 -447q-17 -137 -100.5 -196t-201.5 -59q-45 0 -91 8q-9 1 -8 13l20 124q1 13 15 10q38 -9 73 -9q55 0 90 26t42 82l-8 -7q-39 -36 -105 -36q-64 0 -114 29t-64 102q-5 23 -5 56q0 24 4 62q9 74 34 126
q30 62 83.5 99t118.5 37q71 0 102 -44q2 -2 4 -1.5t2 3.5l3 22q1 5 4.5 8.5zM358 264q4 34 4 40q0 15 -5 32q-5 22 -20 34.5t-40 12.5q-45 0 -70 -47q-19 -28 -24 -74q-2 -12 -2 -33q0 -24 6 -39q5 -21 21 -34t41 -13q49 0 71 46q12 24 18 75zM195 690q0 10 11 10h105
q10 0 13 -8l25 -54q2 -3 4 -3t3 3l39 54q4 8 14 8h105q9 0 9 -7q0 -3 -3 -8l-85 -105q-5 -8 -14 -8h-155q-10 0 -13 8l-57 105q-1 2 -1 5z" />
    <glyph glyph-name="uni01E9" unicode="&#x1e9;" horiz-adv-x="528" 
d="M25 3.5q-3 3.5 -2 8.5l83 676q1 5 4.5 8.5t8.5 3.5h138q5 0 8 -3.5t2 -8.5l-38 -311q-1 -3 1 -3.5t4 1.5l123 135q6 7 15 7h158q9 0 9 -6q0 -5 -4 -9l-148 -169q-1 -2 -1 -7l107 -312l1 -4q0 -10 -12 -10h-143q-10 0 -13 9l-62 213q-1 2 -3 2.5t-4 -1.5l-54 -67
q-2 -4 -2 -6l-17 -138q-1 -5 -4.5 -8.5t-8.5 -3.5h-138q-5 0 -8 3.5zM180 872q0 10 11 10h105q10 0 13 -8l25 -54q2 -3 4 -3t3 3l39 54q4 8 14 8h105q9 0 9 -7q0 -3 -3 -8l-85 -105q-5 -8 -14 -8h-155q-10 0 -13 8l-57 105q-1 2 -1 5z" />
    <glyph glyph-name="uni01EF" unicode="&#x1ef;" horiz-adv-x="469" 
d="M273 254q0 -2 4 -2q78 -15 113.5 -66.5t35.5 -117.5q0 -12 -2 -34q-8 -71 -50 -125.5t-107.5 -84.5t-142.5 -30q-63 0 -127 21q-5 1 -6.5 4.5t-0.5 9.5l20 122q0 6 4.5 9t10.5 1q56 -17 101 -17q59 0 95.5 26.5t43.5 76.5q1 5 1 15q0 41 -24 69t-63 28q-32 0 -69 -20
q-4 -2 -7 -2q-6 0 -9 6l-40 74q-2 4 -2 7q0 6 6 10l174 127q2 2 1.5 4t-3.5 2h-164q-5 0 -8 3.5t-2 8.5l16 126q1 5 4.5 8.5t8.5 3.5h351q5 0 8 -3.5t2 -8.5l-15 -120q0 -9 -8 -15l-148 -112q-2 -2 -2 -4zM125 690q0 10 11 10h105q10 0 13 -8l25 -54q2 -3 4 -3t3 3l39 54
q4 8 14 8h105q9 0 9 -7q0 -3 -3 -8l-85 -105q-5 -8 -14 -8h-155q-10 0 -13 8l-57 105q-1 2 -1 5z" />
    <glyph glyph-name="oslashacute" unicode="&#x1ff;" horiz-adv-x="520" 
d="M501 416q14 -26 18 -58q4 -23 4 -54q0 -28 -2 -42q-6 -47 -21 -88q-31 -84 -98 -133t-156 -49q-44 0 -79 13q-3 1 -7 -3l-49 -61q-5 -5 -9 -5t-8 3l-87 77q-4 3 -4 7q0 6 4 10l50 61q2 4 1 7q-14 29 -20 69q-3 21 -3 43q0 23 3 47q6 54 24 97q33 79 99 123.5t152 44.5
q38 0 79 -12q4 -1 6 2l52 64q4 5 8.5 6t8.5 -3l88 -77q3 -3 3 -7q0 -5 -3 -10l-53 -65q-1 -2 -1 -7zM359 260q2 20 2 28q0 45 -16.5 70t-50.5 25q-28 0 -48.5 -17.5t-32.5 -47.5q-10 -27 -13 -58q-2 -11 -2 -33q0 -16 1 -24q3 -32 20 -50.5t45 -18.5t48.5 18.5t33.5 50.5
q8 22 13 57zM240.5 582q-1.5 4 1.5 10l63 99q6 9 16 9h119q9 0 9 -6q0 -5 -4 -9l-83 -100q-6 -7 -15 -7h-99q-6 0 -7.5 4z" />
    <glyph glyph-name="uni0218" unicode="&#x218;" horiz-adv-x="581" 
d="M97.5 42.5q-64.5 50.5 -64.5 137.5q0 9 2 29l3 19q1 5 4.5 8.5t8.5 3.5h135q5 0 8 -3.5t2 -8.5l-2 -12q-4 -33 25.5 -57.5t83.5 -24.5q46 0 68.5 21.5t22.5 47.5q0 24 -21 37.5t-76 33.5l-23 8q-56 20 -97 42t-70.5 60t-29.5 93q0 8 2 26q8 62 45.5 108.5t96.5 71.5
t130 25q69 0 122.5 -24t83.5 -68.5t30 -102.5q0 -9 -2 -29l-2 -14q0 -5 -4 -8.5t-9 -3.5h-134q-5 0 -8.5 3.5t-2.5 8.5l1 7q4 35 -22.5 62t-76.5 27q-41 0 -65 -18.5t-24 -51.5q0 -18 13 -31t39 -24.5t80 -31.5q61 -22 94.5 -38t63 -51.5t29.5 -91.5q0 -8 -2 -26
q-12 -97 -88.5 -153.5t-192.5 -56.5q-112 0 -176.5 50.5zM134.5 -172q-1.5 4 1.5 10l63 99q6 9 16 9h119q9 0 9 -6q0 -5 -4 -9l-83 -100q-6 -7 -15 -7h-99q-6 0 -7.5 4z" />
    <glyph glyph-name="uni0219" unicode="&#x219;" horiz-adv-x="496" 
d="M81 30q-56 38 -56 101q0 11 1 17l1 11q1 5 4.5 8.5t8.5 3.5h131q11 0 11 -12q-3 -19 16 -31.5t50 -12.5q29 0 46 10.5t17 27.5q0 14 -16 21t-52 14q-59 13 -94 29q-42 19 -67 46.5t-25 72.5q0 13 1 20q10 78 74 123.5t160 45.5q91 0 144.5 -41.5t53.5 -110.5
q0 -13 -1 -20q-1 -5 -5 -8.5t-9 -3.5h-127q-5 0 -8 3.5t-2 8.5q2 19 -13.5 31t-45.5 12q-29 0 -47.5 -10.5t-18.5 -28.5q0 -16 18 -23.5t58 -14.5q53 -11 76 -19q52 -18 81 -47.5t29 -77.5q0 -13 -1 -20q-10 -78 -74.5 -120.5t-165.5 -42.5q-97 0 -153 38zM96.5 -171
q-1.5 4 1.5 10l63 99q6 9 16 9h119q9 0 9 -6q0 -5 -4 -9l-83 -100q-6 -7 -15 -7h-99q-6 0 -7.5 4z" />
    <glyph glyph-name="uni021A" unicode="&#x21a;" horiz-adv-x="572" 
d="M613 696.5q3 -3.5 2 -8.5l-15 -119q0 -5 -4 -8.5t-9 -3.5h-169q-6 0 -6 -5l-66 -540q-1 -5 -4.5 -8.5t-8.5 -3.5h-138q-5 0 -8 3.5t-2 8.5l66 540q0 5 -4 5h-164q-5 0 -8 3.5t-2 8.5l14 119q1 5 4.5 8.5t8.5 3.5h505q5 0 8 -3.5zM113.5 -164q-1.5 4 1.5 10l63 99
q6 9 16 9h119q9 0 9 -6q0 -5 -4 -9l-83 -100q-6 -7 -15 -7h-99q-6 0 -7.5 4z" />
    <glyph glyph-name="uni021B" unicode="&#x21b;" horiz-adv-x="374" 
d="M375 387.5q-4 -3.5 -9 -3.5h-88q-5 0 -5 -5l-23 -182q-1 -5 -1 -14q0 -43 39 -43h36q5 0 8 -3.5t2 -8.5l-14 -116q-2 -11 -13 -13q-48 -2 -69 -2q-77 0 -114.5 22t-37.5 82q0 8 2 28l30 250q2 5 -4 5h-55q-5 0 -8 3.5t-2 8.5l13 109q1 5 4.5 8.5t8.5 3.5h55q6 0 6 5
l15 121q1 5 4.5 8.5t8.5 3.5h131q5 0 8 -3.5t2 -8.5l-15 -121q0 -5 4 -5h89q5 0 8 -3.5t2 -8.5l-14 -109q0 -5 -4 -8.5zM86.5 -166q-1.5 4 1.5 10l63 99q6 9 16 9h119q9 0 9 -6q0 -5 -4 -9l-83 -100q-6 -7 -15 -7h-99q-6 0 -7.5 4z" />
    <glyph glyph-name="uni021F" unicode="&#x21f;" 
d="M478.5 484q41.5 -41 41.5 -113q0 -8 -2 -30l-40 -329q-1 -5 -4.5 -8.5t-8.5 -3.5h-138q-5 0 -8 3.5t-2 8.5l36 293l1 12q0 30 -16 48t-42 18q-29 0 -50.5 -21.5t-25.5 -56.5l-36 -293q-1 -5 -4.5 -8.5t-8.5 -3.5h-138q-5 0 -8 3.5t-2 8.5l83 676q1 5 4.5 8.5t8.5 3.5h138
q5 0 8 -3.5t2 -8.5l-27 -220q-1 -4 1 -4.5t4 2.5q44 59 123 59q69 0 110.5 -41zM183 872q0 10 11 10h105q10 0 13 -8l25 -54q2 -3 4 -3t3 3l39 54q4 8 14 8h105q9 0 9 -7q0 -3 -3 -8l-85 -105q-5 -8 -14 -8h-155q-10 0 -13 8l-57 105q-1 2 -1 5z" />
    <glyph glyph-name="uni0228" unicode="&#x228;" horiz-adv-x="559" 
d="M575.5 561.5q-3.5 -3.5 -8.5 -3.5h-304q-6 0 -6 -5l-15 -123q0 -5 4 -5h195q5 0 8 -3.5t2 -8.5l-14 -117q-1 -5 -4.5 -8.5t-8.5 -3.5h-195q-4 0 -6 -5l-16 -132q0 -5 4 -5h305q5 0 8 -3.5t2 -8.5l-14 -118q-1 -5 -4.5 -8.5t-8.5 -3.5h-153q-3 0 -4 -2t1 -4q26 -32 26 -69
q0 -20 -7 -37q-14 -35 -41.5 -50.5t-61.5 -15.5t-66 14q-9 4 -6 14l15 61q1 6 6 8t10 -1q8 -3 16 -3q23 0 30 19q3 6 3 13q0 23 -31 51q-2 2 -5 2h-191q-5 0 -8 3.5t-2 8.5l83 676q0 5 4 8.5t9 3.5h459q5 0 8 -3.5t2 -8.5l-15 -118q-1 -5 -4.5 -8.5z" />
    <glyph glyph-name="uni0229" unicode="&#x229;" horiz-adv-x="532" 
d="M517 225q-3 -12 -15 -12h-295q-6 0 -6 -5q1 -15 6 -29q9 -21 31 -34t56 -13q60 0 101 41q4 5 9 5q4 0 7 -4l64 -88q3 -3 3 -7t-5 -9q-58 -58 -147 -74q-6 -1 -3 -6q32 -35 32 -76q0 -19 -7 -36q-14 -35 -42 -50t-62 -15q-35 0 -65 13q-8 3 -6 14l16 61q1 6 5.5 8t9.5 0
q12 -4 18 -4q21 0 30 19q2 8 2 11q0 27 -39 60l-6 3q-62 11 -102.5 48.5t-56.5 95.5q-9 33 -9 71q0 21 3 45q6 55 29 109q34 74 97.5 116.5t142.5 42.5q64 0 111 -28.5t72.5 -79t26.5 -114.5q1 -30 -6 -79zM222 334q-3 -7 -7 -21q-2 -5 3 -5h138q5 0 5 5q0 7 -2 19
q-4 25 -20.5 38t-43.5 13q-49 0 -73 -49z" />
    <glyph glyph-name="uni0237" unicode="&#x237;" horiz-adv-x="255" 
d="M-107 -198.5q-3 3.5 -2 8.5l14 115q1 6 5 9t9 2q59 -3 82.5 13.5t29.5 63.5l58 492q1 5 4.5 8.5t8.5 3.5h140q5 0 8 -3.5t2 -8.5l-60 -490q-11 -89 -39.5 -136t-87 -65.5t-164.5 -15.5q-5 0 -8 3.5z" />
    <glyph glyph-name="uni0259" unicode="&#x259;" horiz-adv-x="532" 
d="M515 300q0 -27 -2 -41q-8 -66 -30 -109q-33 -73 -96.5 -115.5t-142.5 -42.5q-65 0 -112.5 29.5t-72.5 82t-25 120.5q0 26 7 68q3 12 14 12h296q5 0 5 4q0 15 -7 31q-8 21 -31 34t-58 13q-61 -1 -98 -42q-4 -4 -9 -4t-8 4l-63 88q-2 2 -2 7t4 9q38 38 90.5 57.5
t111.5 19.5q88 0 144.5 -39t75.5 -111q9 -33 9 -75zM335 183q6 14 7 21q1 2 0 3.5t-3 1.5h-139q-5 0 -5 -5l2 -19q5 -24 21.5 -37.5t43.5 -13.5q48 0 73 49z" />
    <glyph glyph-name="uni0292" unicode="&#x292;" horiz-adv-x="469" 
d="M273 254q0 -2 4 -2q78 -15 113.5 -66.5t35.5 -117.5q0 -12 -2 -34q-8 -71 -50 -125.5t-107.5 -84.5t-142.5 -30q-63 0 -127 21q-5 1 -6.5 4.5t-0.5 9.5l20 122q0 6 4.5 9t10.5 1q56 -17 101 -17q59 0 95.5 26.5t43.5 76.5q1 5 1 15q0 41 -24 69t-63 28q-32 0 -69 -20
q-4 -2 -7 -2q-6 0 -9 6l-40 74q-2 4 -2 7q0 6 6 10l174 127q2 2 1.5 4t-3.5 2h-164q-5 0 -8 3.5t-2 8.5l16 126q1 5 4.5 8.5t8.5 3.5h351q5 0 8 -3.5t2 -8.5l-15 -120q0 -9 -8 -15l-148 -112q-2 -2 -2 -4z" />
    <glyph glyph-name="uni02BB" unicode="&#x2bb;" horiz-adv-x="219" 
d="M70 690q0 10 11 10h137q11 0 12 -10l26 -210v-2q0 -11 -12 -11h-104q-10 0 -13 9l-56 210z" />
    <glyph glyph-name="uni02BC" unicode="&#x2bc;" horiz-adv-x="219" 
d="M279.5 696q1.5 -4 -1.5 -10l-108 -210q-4 -9 -15 -9h-103q-14 0 -10 13l78 210q3 10 14 10h137q7 0 8.5 -4z" />
    <glyph glyph-name="circumflex" unicode="&#x2c6;" horiz-adv-x="334" 
d="M74 579q0 4 3 8l83 105q5 8 14 8h155q10 0 13 -8l59 -105q2 -4 2 -6q0 -4 -3.5 -6.5t-8.5 -2.5h-104q-10 0 -13 8l-26 53q-1 3 -3 3t-3 -3l-39 -53q-5 -8 -14 -8h-106q-9 0 -9 7z" />
    <glyph glyph-name="caron" unicode="&#x2c7;" horiz-adv-x="373" 
d="M88 690q0 10 11 10h105q10 0 13 -8l25 -54q2 -3 4 -3t3 3l39 54q4 8 14 8h105q9 0 9 -7q0 -3 -3 -8l-85 -105q-5 -8 -14 -8h-155q-10 0 -13 8l-57 105q-1 2 -1 5z" />
    <glyph glyph-name="uni02C9" unicode="&#x2c9;" horiz-adv-x="294" 
d="M56 590.5q-3 3.5 -2 8.5l11 87q1 5 4.5 8.5t8.5 3.5h271q5 0 8 -3.5t2 -8.5l-11 -87q-1 -5 -4.5 -8.5t-8.5 -3.5h-271q-5 0 -8 3.5z" />
    <glyph glyph-name="breve" unicode="&#x2d8;" horiz-adv-x="360" 
d="M121.5 591q-41.5 34 -41.5 87q0 9 2.5 13t9.5 4h80q10 0 10 -11q2 -20 17.5 -31.5t40.5 -11.5t43.5 11.5t25.5 31.5q3 11 13 11h78q5 0 8 -2.5t2 -7.5q-11 -56 -61.5 -92t-119.5 -36q-66 0 -107.5 34z" />
    <glyph glyph-name="dotaccent" unicode="&#x2d9;" horiz-adv-x="198" 
d="M94.5 584q-20.5 21 -20.5 54q0 43 28 71t68 28q34 0 54 -20t20 -54q0 -42 -28 -71t-67 -29q-34 0 -54.5 21z" />
    <glyph glyph-name="ring" unicode="&#x2da;" horiz-adv-x="282" 
d="M110 588.5q-31 31.5 -31 79.5q0 40 19.5 74t52.5 54t71 20q49 0 80.5 -31.5t31.5 -80.5q0 -40 -19.5 -74t-52.5 -53.5t-72 -19.5q-49 0 -80 31.5zM235 657.5q15 15.5 15 36.5q0 17 -11 28t-28 11q-19 0 -33.5 -15.5t-14.5 -36.5q0 -17 10.5 -28t26.5 -11q20 0 35 15.5z
" />
    <glyph glyph-name="ogonek" unicode="&#x2db;" horiz-adv-x="174" 
d="M124 -182q-33 -13 -69 -13q-38 0 -62.5 18.5t-24.5 61.5q0 57 66 110q8 5 15 5h78q9 0 9 -5q0 -4 -7 -10q-28 -19 -41.5 -37t-11.5 -32q1 -9 8 -14t17 -5q5 0 19 4q2 1 6 1q7 0 7 -9l1 -61q0 -11 -10 -14z" />
    <glyph glyph-name="tilde" unicode="&#x2dc;" horiz-adv-x="380" 
d="M268.5 567q-13.5 4 -29.5 13q-18 9 -27.5 12t-19.5 3q-32 0 -54 -20q-11 -10 -17 -1l-42 54q-3 5 -3 8q0 4 3 8q20 30 50.5 48.5t66.5 18.5q19 0 33.5 -5t26 -10.5t14.5 -7.5q12 -7 24 -11.5t23 -4.5q27 0 48 22q11 11 16 1l37 -56q5 -7 2 -13q-15 -27 -46 -45t-71 -18
q-21 0 -34.5 4z" />
    <glyph glyph-name="hungarumlaut" unicode="&#x2dd;" horiz-adv-x="430" 
d="M74 590q-2 4 2 10l62 99q6 9 16 9h116q10 0 10 -7q0 -4 -4 -8l-82 -100q-6 -7 -14 -7h-97q-7 0 -9 4zM269 590q-2 4 2 10l62 99q6 9 16 9h116q10 0 10 -7q0 -4 -4 -8l-82 -100q-6 -7 -14 -7h-97q-7 0 -9 4z" />
    <glyph glyph-name="gravecomb" unicode="&#x300;" horiz-adv-x="0" 
d="M39 587q0 -4 -3 -6.5t-8 -2.5h-99q-9 0 -12 7l-59 100q-2 4 -2 7t3 5.5t8 2.5h119q9 0 14 -9l38 -99q1 -2 1 -5z" />
    <glyph glyph-name="acutecomb" unicode="&#x301;" horiz-adv-x="0" 
d="M-181.5 582q-1.5 4 1.5 10l63 99q6 9 16 9h119q9 0 9 -6q0 -5 -4 -9l-83 -100q-6 -7 -15 -7h-99q-6 0 -7.5 4z" />
    <glyph glyph-name="uni0302" unicode="&#x302;" horiz-adv-x="0" 
d="M-299 579q0 4 3 8l83 105q5 8 14 8h155q10 0 13 -8l59 -105q2 -4 2 -6q0 -4 -3.5 -6.5t-8.5 -2.5h-104q-10 0 -13 8l-26 53q-1 3 -3 3t-3 -3l-39 -53q-5 -8 -14 -8h-106q-9 0 -9 7z" />
    <glyph glyph-name="tildecomb" unicode="&#x303;" horiz-adv-x="0" 
d="M-99.5 567q-13.5 4 -29.5 13q-18 9 -27.5 12t-19.5 3q-32 0 -54 -20q-11 -10 -17 -1l-42 54q-3 5 -3 8q0 4 3 8q20 30 50.5 48.5t66.5 18.5q19 0 33.5 -5t26 -10.5t14.5 -7.5q12 -7 24 -11.5t23 -4.5q27 0 48 22q11 11 16 1l37 -56q5 -7 2 -13q-15 -27 -46 -45t-71 -18
q-21 0 -34.5 4z" />
    <glyph glyph-name="uni0304" unicode="&#x304;" horiz-adv-x="0" 
d="M-238 587.5q-3 3.5 -2 8.5l10 87q1 5 5 8.5t9 3.5h270q5 0 8 -3.5t2 -8.5l-10 -87q-1 -5 -4.5 -8.5t-8.5 -3.5h-271q-5 0 -8 3.5z" />
    <glyph glyph-name="uni0306" unicode="&#x306;" horiz-adv-x="0" 
d="M-239.5 588.5q-41.5 32.5 -41.5 83.5q0 15 12 15h71q9 0 11 -11q2 -20 20 -32t46 -12t49 12t29 32q3 11 13 11h69q12 0 10 -9q-11 -53 -61 -87.5t-119 -34.5q-67 0 -108.5 32.5z" />
    <glyph glyph-name="uni0307" unicode="&#x307;" horiz-adv-x="0" 
d="M-98.5 584q-20.5 21 -20.5 54q0 43 28 71t68 28q34 0 54 -20t20 -54q0 -42 -28 -71t-67 -29q-34 0 -54.5 21z" />
    <glyph glyph-name="uni0308" unicode="&#x308;" horiz-adv-x="0" 
d="M-87.5 592q-20.5 21 -20.5 54q0 43 28 71t68 28q34 0 54 -20t20 -54q0 -42 -28 -71t-67 -29q-34 0 -54.5 21zM-290.5 592q-20.5 21 -20.5 54q0 43 28 71t68 28q34 0 54 -20t20 -54q0 -42 -28 -71t-67 -29q-34 0 -54.5 21z" />
    <glyph glyph-name="hookabovecomb" unicode="&#x309;" horiz-adv-x="0" 
d="M-291 568q-2 4 2 10q15 29 37 51q11 12 15.5 19t6.5 20v1q0 7 -6 13t-14 6q-12 0 -21 -6t-25 -23q-9 -9 -17 -2l-36 30q-5 5 -5 9t4 8q26 33 51.5 47t61.5 14q42 0 66 -21.5t24 -58.5q0 -31 -11.5 -50t-34.5 -41q-22 -20 -30 -33q-7 -8 -15 -7l-45 9q-6 1 -8 5z" />
    <glyph glyph-name="uni030A" unicode="&#x30a;" horiz-adv-x="0" 
d="M-137 588.5q-31 31.5 -31 79.5q0 40 19.5 74t52.5 54t71 20q49 0 80.5 -31.5t31.5 -80.5q0 -40 -19.5 -74t-52.5 -53.5t-72 -19.5q-49 0 -80 31.5zM-12 657.5q15 15.5 15 36.5q0 17 -11 28t-28 11q-19 0 -33.5 -15.5t-14.5 -36.5q0 -17 10.5 -28t26.5 -11q20 0 35 15.5z
" />
    <glyph glyph-name="uni030B" unicode="&#x30b;" horiz-adv-x="0" 
d="M-335 581.5q-2 3.5 2 10.5l54 99q5 9 15 9h121q7 0 9 -3.5t-2 -10.5l-62 -99q-6 -9 -15 -9h-113q-7 0 -9 3.5zM-157 582q-2 4 2 10l63 99q2 4 6.5 6.5t8.5 2.5h114q9 0 9 -6q0 -3 -3 -8l-63 -99q-2 -4 -6.5 -6.5t-8.5 -2.5h-113q-7 0 -9 4z" />
    <glyph glyph-name="uni030C" unicode="&#x30c;" horiz-adv-x="0" 
d="M-285 690q0 10 11 10h105q10 0 13 -8l25 -54q2 -3 4 -3t3 3l39 54q4 8 14 8h105q9 0 9 -7q0 -3 -3 -8l-85 -105q-5 -8 -14 -8h-155q-10 0 -13 8l-57 105q-1 2 -1 5z" />
    <glyph glyph-name="uni0312" unicode="&#x312;" horiz-adv-x="0" 
d="M45 694q0 -3 -3 -8l-62 -99q-6 -9 -16 -9h-119q-9 0 -9 6q0 5 4 9l83 100q5 7 14 7h99q9 0 9 -6z" />
    <glyph glyph-name="uni0313" unicode="&#x313;" horiz-adv-x="0" 
d="M-155.5 582q-1.5 4 1.5 10l63 99q6 9 16 9h119q9 0 9 -6q0 -5 -4 -9l-83 -100q-6 -7 -15 -7h-99q-6 0 -7.5 4z" />
    <glyph glyph-name="uni031B" unicode="&#x31b;" horiz-adv-x="0" 
d="M-122 448l7 57q2 12 12 12q66 7 80 78q1 6 4.5 9t8.5 3h73q12 0 9 -18q-15 -76 -67.5 -113t-116.5 -40q-12 0 -10 12z" />
    <glyph glyph-name="dotbelowcomb" unicode="&#x323;" horiz-adv-x="0" 
d="M-199 -208.5q-20 19.5 -20 51.5q0 42 26.5 69t66.5 27q32 0 51.5 -19.5t19.5 -51.5q0 -41 -26.5 -68.5t-64.5 -27.5q-33 0 -53 19.5z" />
    <glyph glyph-name="uni0326" unicode="&#x326;" horiz-adv-x="0" 
d="M-270.5 -164q-1.5 4 1.5 10l63 99q6 9 16 9h119q9 0 9 -6q0 -5 -4 -9l-83 -100q-6 -7 -15 -7h-99q-6 0 -7.5 4z" />
    <glyph glyph-name="uni0327" unicode="&#x327;" horiz-adv-x="0" 
d="M-213 -168l15 61q3 13 16 8q12 -4 18 -4q10 0 17.5 5t11.5 14q2 4 2 12q0 27 -38 57q-5 5 -5 8q0 7 11 7h76q9 0 14 -5q44 -42 44 -88q0 -18 -8 -37q-13 -35 -40.5 -50t-61.5 -15q-36 0 -66 13q-9 3 -6 14z" />
    <glyph glyph-name="uni0328" unicode="&#x328;" horiz-adv-x="0" 
d="M-50 -182q-33 -13 -69 -13q-38 0 -62.5 18.5t-24.5 61.5q0 58 66 110q7 5 15 5h78q9 0 9 -5q0 -4 -7 -10q-28 -19 -41.5 -37t-11.5 -32q1 -9 8 -14t17 -5q5 0 19 4q2 1 6 1q7 0 7 -9l1 -61q0 -11 -10 -14z" />
    <glyph glyph-name="uni0335" unicode="&#x335;" horiz-adv-x="0" 
d="M-292.5 647.5q3.5 3.5 8.5 3.5h333q5 0 8 -3.5t2 -8.5l-9 -74q-1 -5 -4.5 -8.5t-8.5 -3.5h-333q-5 0 -8 3.5t-2 8.5l9 74q1 5 4.5 8.5z" />
    <glyph glyph-name="uni0336" unicode="&#x336;" horiz-adv-x="0" 
d="M-577 510.5q-3 3.5 -2 8.5l11 87q1 5 4.5 8.5t8.5 3.5h600q5 0 8 -3.5t2 -8.5l-11 -87q-1 -5 -4.5 -8.5t-8.5 -3.5h-600q-5 0 -8 3.5z" />
    <glyph glyph-name="uni0337" unicode="&#x337;" horiz-adv-x="0" 
d="M-451 -62q-5 0 -8 5l-54 76q-2 2 -2 7q0 6 5 10l533 425q6 4 8 4q5 0 8 -5l54 -76q2 -2 2 -7q0 -6 -5 -10l-533 -425q-6 -4 -8 -4z" />
    <glyph glyph-name="uni0338" unicode="&#x338;" horiz-adv-x="0" 
d="M-478 -30.5q-2 3.5 2 10.5l458 746q6 9 15 9h59q7 0 9 -3.5t-2 -10.5l-459 -746q-6 -9 -15 -9h-58q-7 0 -9 3.5z" />
    <glyph glyph-name="uni0394" unicode="&#x394;" horiz-adv-x="649" 
d="M2 12l15 122q1 5 5 15l306 542q5 9 15 9h95q9 0 13 -9l173 -543q3 -7 1 -15l-14 -121q-1 -5 -4.5 -8.5t-8.5 -3.5h-585q-11 0 -11 12zM178 145q1 -2 3 -2h284q2 0 3 2t0 4l-102 331q-2 7 -5 0l-183 -331q-1 -2 0 -4z" />
    <glyph glyph-name="uni03A9" unicode="&#x3a9;" horiz-adv-x="613" 
d="M21 3.5q-3 3.5 -2 8.5l14 118q1 5 5 8.5t9 3.5h30q2 0 3 2t0 4q-24 44 -24 103q0 11 2 35l21 164q9 76 49 134.5t104 91t142 32.5q72 0 125 -27t81.5 -76.5t28.5 -115.5q0 -26 -2 -39l-20 -164q-10 -82 -56 -138q-1 -2 -0.5 -4t2.5 -2h30q5 0 8 -3.5t2 -8.5l-15 -118
q-1 -5 -4.5 -8.5t-8.5 -3.5h-225q-5 0 -8 3.5t-2 8.5l15 122q1 10 12 13q33 8 56.5 38t28.5 72l25 197q1 6 1 18q0 44 -24.5 69.5t-66.5 25.5q-47 0 -79 -31t-38 -82l-24 -197q-1 -7 -1 -19q0 -35 15.5 -59.5t42.5 -32.5q10 -3 9 -13l-15 -121q-1 -5 -4.5 -8.5t-8.5 -3.5
h-225q-5 0 -8 3.5z" />
    <glyph glyph-name="uni03BC" unicode="&#x3bc;" horiz-adv-x="537" 
d="M381.5 513.5q3.5 3.5 8.5 3.5h138q5 0 8 -3.5t2 -8.5l-60 -493q-1 -5 -4.5 -8.5t-8.5 -3.5h-138q-5 0 -8 3.5t-2 8.5l4 35q1 3 -1 4t-4 -2q-48 -57 -130 -57v0q-5 0 -5 -5l-22 -175q-1 -5 -4.5 -8.5t-8.5 -3.5h-138q-5 0 -8 3.5t-2 8.5l85 693q1 5 4.5 8.5t8.5 3.5h138
q5 0 8 -3.5t2 -8.5l-36 -293l-1 -13q0 -29 15.5 -46.5t42.5 -17.5t47 17t27 45l38 308q1 5 4.5 8.5z" />
    <glyph glyph-name="pi" unicode="&#x3c0;" horiz-adv-x="648" 
d="M647.5 379.5q-3.5 -3.5 -8.5 -3.5h-54q-6 0 -6 -5l-20 -161q-2 -20 -2 -26q0 -30 10.5 -38t31.5 -6h2q4 0 6.5 -3.5t1.5 -8.5l-14 -116q-2 -12 -13 -12q-40 -2 -66 -2q-60 0 -95.5 19t-35.5 74q0 8 2 26l31 254q0 5 -4 5h-124q-4 0 -6 -5l-44 -359q-1 -5 -4.5 -8.5
t-8.5 -3.5h-138q-5 0 -8 3.5t-2 8.5l44 359q2 5 -4 5h-56q-11 0 -11 12l15 117q1 5 4.5 8.5t8.5 3.5h576q5 0 8 -3.5t2 -8.5l-14 -117q-1 -5 -4.5 -8.5z" />
    <glyph glyph-name="Wgrave" unicode="&#x1e80;" horiz-adv-x="901" 
d="M185 10l-98 677v2q0 11 12 11h147q10 0 11 -10l40 -364q0 -4 2.5 -4t3.5 4l120 363q3 11 14 11h135q10 0 11 -10l40 -364q0 -4 2.5 -4t3.5 4l123 363q3 11 14 11h143q14 0 10 -13l-248 -677q-3 -10 -14 -10h-139q-11 0 -11 11l-37 386q-1 4 -3 4t-3 -4l-123 -386
q-3 -11 -14 -11h-130q-10 0 -12 10zM587 770q0 -4 -3 -6.5t-8 -2.5h-99q-9 0 -12 7l-59 100q-2 4 -2 7t3 5.5t8 2.5h119q9 0 14 -9l38 -99q1 -2 1 -5z" />
    <glyph glyph-name="wgrave" unicode="&#x1e81;" horiz-adv-x="781" 
d="M141 10l-80 494v2q0 5 3 8.5t8 3.5h143q11 0 11 -11l25 -271q0 -4 2.5 -4t3.5 4l96 272q4 10 14 10h124q12 0 13 -10l32 -273q1 -3 3 -3t3 3l98 273q4 10 15 10l142 -2q5 0 7.5 -3.5t0.5 -9.5l-203 -493q-5 -10 -14 -10h-143q-10 0 -12 10l-36 233q0 3 -2 3t-3 -3
l-83 -233q-4 -10 -14 -10h-143q-9 0 -11 10zM497 587q0 -4 -3 -6.5t-8 -2.5h-99q-9 0 -12 7l-59 100q-2 4 -2 7t3 5.5t8 2.5h119q9 0 14 -9l38 -99q1 -2 1 -5z" />
    <glyph glyph-name="Wacute" unicode="&#x1e82;" horiz-adv-x="901" 
d="M185 10l-98 677v2q0 11 12 11h147q10 0 11 -10l40 -364q0 -4 2.5 -4t3.5 4l120 363q3 11 14 11h135q10 0 11 -10l40 -364q0 -4 2.5 -4t3.5 4l123 363q3 11 14 11h143q14 0 10 -13l-248 -677q-3 -10 -14 -10h-139q-11 0 -11 11l-37 386q-1 4 -3 4t-3 -4l-123 -386
q-3 -11 -14 -11h-130q-10 0 -12 10zM453.5 765q-1.5 4 1.5 10l63 99q6 9 16 9h119q9 0 9 -6q0 -5 -4 -9l-83 -100q-6 -7 -15 -7h-99q-6 0 -7.5 4z" />
    <glyph glyph-name="wacute" unicode="&#x1e83;" horiz-adv-x="781" 
d="M141 10l-80 494v2q0 5 3 8.5t8 3.5h143q11 0 11 -11l25 -271q0 -4 2.5 -4t3.5 4l96 272q4 10 14 10h124q12 0 13 -10l32 -273q1 -3 3 -3t3 3l98 273q4 10 15 10l142 -2q5 0 7.5 -3.5t0.5 -9.5l-203 -493q-5 -10 -14 -10h-143q-10 0 -12 10l-36 233q0 3 -2 3t-3 -3
l-83 -233q-4 -10 -14 -10h-143q-9 0 -11 10zM364.5 582q-1.5 4 1.5 10l63 99q6 9 16 9h119q9 0 9 -6q0 -5 -4 -9l-83 -100q-6 -7 -15 -7h-99q-6 0 -7.5 4z" />
    <glyph glyph-name="Wdieresis" unicode="&#x1e84;" horiz-adv-x="901" 
d="M185 10l-98 677v2q0 11 12 11h147q10 0 11 -10l40 -364q0 -4 2.5 -4t3.5 4l120 363q3 11 14 11h135q10 0 11 -10l40 -364q0 -4 2.5 -4t3.5 4l123 363q3 11 14 11h143q14 0 10 -13l-248 -677q-3 -10 -14 -10h-139q-11 0 -11 11l-37 386q-1 4 -3 4t-3 -4l-123 -386
q-3 -11 -14 -11h-130q-10 0 -12 10zM571.5 775q-20.5 21 -20.5 54q0 43 28 71t68 28q34 0 54 -20t20 -54q0 -42 -28 -71t-67 -29q-34 0 -54.5 21zM368.5 775q-20.5 21 -20.5 54q0 43 28 71t68 28q34 0 54 -20t20 -54q0 -42 -28 -71t-67 -29q-34 0 -54.5 21z" />
    <glyph glyph-name="wdieresis" unicode="&#x1e85;" horiz-adv-x="781" 
d="M141 10l-80 494v2q0 5 3 8.5t8 3.5h143q11 0 11 -11l25 -271q0 -4 2.5 -4t3.5 4l96 272q4 10 14 10h124q12 0 13 -10l32 -273q1 -3 3 -3t3 3l98 273q4 10 15 10l142 -2q5 0 7.5 -3.5t0.5 -9.5l-203 -493q-5 -10 -14 -10h-143q-10 0 -12 10l-36 233q0 3 -2 3t-3 -3
l-83 -233q-4 -10 -14 -10h-143q-9 0 -11 10zM482.5 592q-20.5 21 -20.5 54q0 43 28 71t68 28q34 0 54 -20t20 -54q0 -42 -28 -71t-67 -29q-34 0 -54.5 21zM279.5 592q-20.5 21 -20.5 54q0 43 28 71t68 28q34 0 54 -20t20 -54q0 -42 -28 -71t-67 -29q-34 0 -54.5 21z" />
    <glyph glyph-name="uni1EA0" unicode="&#x1ea0;" horiz-adv-x="673" 
d="M463 3q-3 3 -4 7l-14 89q-2 4 -5 4h-221q-3 0 -5 -4l-36 -89q-5 -10 -15 -10h-148q-6 0 -8.5 3.5t0.5 10.5l290 676q5 10 14 10h183q9 0 12 -10l125 -676v-4q0 -10 -11 -10h-149q-5 0 -8 3zM273 231h144q5 0 5 6l-42 257q-1 4 -3 3.5t-3 -3.5l-104 -257q-3 -6 3 -6z
M237 -208.5q-20 19.5 -20 51.5q0 42 26.5 69t66.5 27q32 0 51.5 -19.5t19.5 -51.5q0 -41 -26.5 -68.5t-64.5 -27.5q-33 0 -53 19.5z" />
    <glyph glyph-name="uni1EA1" unicode="&#x1ea1;" horiz-adv-x="518" 
d="M398.5 513.5q3.5 3.5 8.5 3.5h138q5 0 8 -3.5t2 -8.5l-61 -493q-1 -5 -4.5 -8.5t-8.5 -3.5h-138q-5 0 -8 3.5t-2 8.5l5 38q0 3 -1.5 4t-4.5 -2q-47 -60 -123 -60q-65 0 -110.5 41.5t-57.5 112.5q-4 21 -4 48q0 28 5 66q8 74 35 128q28 60 82 98.5t122 38.5q74 0 103 -51
q2 -3 4 -2t2 4l4 29q1 5 4.5 8.5zM363 258q3 24 3 41q0 23 -6 41q-6 20 -20.5 31.5t-36.5 11.5q-23 0 -41 -12t-29 -33q-16 -27 -23 -80q-2 -14 -2 -38q0 -26 5 -41q6 -20 21.5 -32.5t38.5 -12.5q44 0 68 46q17 28 22 78zM160 -208.5q-20 19.5 -20 51.5q0 42 26.5 69
t66.5 27q32 0 51.5 -19.5t19.5 -51.5q0 -41 -26.5 -68.5t-64.5 -27.5q-33 0 -53 19.5z" />
    <glyph glyph-name="uni1EA2" unicode="&#x1ea2;" horiz-adv-x="673" 
d="M463 3q-3 3 -4 7l-14 89q-2 4 -5 4h-221q-3 0 -5 -4l-36 -89q-5 -10 -15 -10h-148q-6 0 -8.5 3.5t0.5 10.5l290 676q5 10 14 10h183q9 0 12 -10l125 -676v-4q0 -10 -11 -10h-149q-5 0 -8 3zM273 231h144q5 0 5 6l-42 257q-1 4 -3 3.5t-3 -3.5l-104 -257q-3 -6 3 -6z
M383 751q-2 4 2 10q15 29 37 51q11 12 15.5 19t6.5 20v1q0 7 -6 13t-14 6q-12 0 -21 -6t-25 -23q-9 -9 -17 -2l-36 30q-5 5 -5 9t4 8q26 33 51.5 47t61.5 14q42 0 66 -21.5t24 -58.5q0 -31 -11.5 -50t-34.5 -41q-22 -20 -30 -33q-7 -8 -15 -7l-45 9q-6 1 -8 5z" />
    <glyph glyph-name="uni1EA3" unicode="&#x1ea3;" horiz-adv-x="518" 
d="M398.5 513.5q3.5 3.5 8.5 3.5h138q5 0 8 -3.5t2 -8.5l-61 -493q-1 -5 -4.5 -8.5t-8.5 -3.5h-138q-5 0 -8 3.5t-2 8.5l5 38q0 3 -1.5 4t-4.5 -2q-47 -60 -123 -60q-65 0 -110.5 41.5t-57.5 112.5q-4 21 -4 48q0 28 5 66q8 74 35 128q28 60 82 98.5t122 38.5q74 0 103 -51
q2 -3 4 -2t2 4l4 29q1 5 4.5 8.5zM363 258q3 24 3 41q0 23 -6 41q-6 20 -20.5 31.5t-36.5 11.5q-23 0 -41 -12t-29 -33q-16 -27 -23 -80q-2 -14 -2 -38q0 -26 5 -41q6 -20 21.5 -32.5t38.5 -12.5q44 0 68 46q17 28 22 78zM285 568q-2 4 2 10q15 29 37 51q11 12 15.5 19
t6.5 20v1q0 7 -6 13t-14 6q-12 0 -21 -6t-25 -23q-9 -9 -17 -2l-36 30q-5 5 -5 9t4 8q26 33 51.5 47t61.5 14q42 0 66 -21.5t24 -58.5q0 -31 -11.5 -50t-34.5 -41q-22 -20 -30 -33q-7 -8 -15 -7l-45 9q-6 1 -8 5z" />
    <glyph glyph-name="uni1EA4" unicode="&#x1ea4;" horiz-adv-x="673" 
d="M463 3q-3 3 -4 7l-14 89q-2 4 -5 4h-221q-3 0 -5 -4l-36 -89q-5 -10 -15 -10h-148q-6 0 -8.5 3.5t0.5 10.5l290 676q5 10 14 10h183q9 0 12 -10l125 -676v-4q0 -10 -11 -10h-149q-5 0 -8 3zM273 231h144q5 0 5 6l-42 257q-1 4 -3 3.5t-3 -3.5l-104 -257q-3 -6 3 -6z
M245 762q0 4 3 8l83 105q5 8 14 8h155q10 0 13 -8l59 -105q2 -4 2 -6q0 -4 -3.5 -6.5t-8.5 -2.5h-104q-10 0 -13 8l-26 53q-1 3 -3 3t-3 -3l-39 -53q-5 -8 -14 -8h-106q-9 0 -9 7zM573.5 839q-1.5 4 1.5 10l63 99q6 9 16 9h119q9 0 9 -6q0 -5 -4 -9l-83 -100q-6 -7 -15 -7
h-99q-6 0 -7.5 4z" />
    <glyph glyph-name="uni1EA5" unicode="&#x1ea5;" horiz-adv-x="518" 
d="M398.5 513.5q3.5 3.5 8.5 3.5h138q5 0 8 -3.5t2 -8.5l-61 -493q-1 -5 -4.5 -8.5t-8.5 -3.5h-138q-5 0 -8 3.5t-2 8.5l5 38q0 3 -1.5 4t-4.5 -2q-47 -60 -123 -60q-65 0 -110.5 41.5t-57.5 112.5q-4 21 -4 48q0 28 5 66q8 74 35 128q28 60 82 98.5t122 38.5q74 0 103 -51
q2 -3 4 -2t2 4l4 29q1 5 4.5 8.5zM363 258q3 24 3 41q0 23 -6 41q-6 20 -20.5 31.5t-36.5 11.5q-23 0 -41 -12t-29 -33q-16 -27 -23 -80q-2 -14 -2 -38q0 -26 5 -41q6 -20 21.5 -32.5t38.5 -12.5q44 0 68 46q17 28 22 78zM147 579q0 4 3 8l83 105q5 8 14 8h155q10 0 13 -8
l59 -105q2 -4 2 -6q0 -4 -3.5 -6.5t-8.5 -2.5h-104q-10 0 -13 8l-26 53q-1 3 -3 3t-3 -3l-39 -53q-5 -8 -14 -8h-106q-9 0 -9 7zM475.5 656q-1.5 4 1.5 10l63 99q6 9 16 9h119q9 0 9 -6q0 -5 -4 -9l-83 -100q-6 -7 -15 -7h-99q-6 0 -7.5 4z" />
    <glyph glyph-name="uni1EA6" unicode="&#x1ea6;" horiz-adv-x="673" 
d="M463 3q-3 3 -4 7l-14 89q-2 4 -5 4h-221q-3 0 -5 -4l-36 -89q-5 -10 -15 -10h-148q-6 0 -8.5 3.5t0.5 10.5l290 676q5 10 14 10h183q9 0 12 -10l125 -676v-4q0 -10 -11 -10h-149q-5 0 -8 3zM273 231h144q5 0 5 6l-42 257q-1 4 -3 3.5t-3 -3.5l-104 -257q-3 -6 3 -6z
M245 762q0 4 3 8l83 105q5 8 14 8h155q10 0 13 -8l59 -105q2 -4 2 -6q0 -4 -3.5 -6.5t-8.5 -2.5h-104q-10 0 -13 8l-26 53q-1 3 -3 3t-3 -3l-39 -53q-5 -8 -14 -8h-106q-9 0 -9 7zM680 889q0 -4 -3 -6.5t-8 -2.5h-99q-9 0 -12 7l-59 100q-2 4 -2 7t3 5.5t8 2.5h119
q9 0 14 -9l38 -99q1 -2 1 -5z" />
    <glyph glyph-name="uni1EA7" unicode="&#x1ea7;" horiz-adv-x="518" 
d="M398.5 513.5q3.5 3.5 8.5 3.5h138q5 0 8 -3.5t2 -8.5l-61 -493q-1 -5 -4.5 -8.5t-8.5 -3.5h-138q-5 0 -8 3.5t-2 8.5l5 38q0 3 -1.5 4t-4.5 -2q-47 -60 -123 -60q-65 0 -110.5 41.5t-57.5 112.5q-4 21 -4 48q0 28 5 66q8 74 35 128q28 60 82 98.5t122 38.5q74 0 103 -51
q2 -3 4 -2t2 4l4 29q1 5 4.5 8.5zM363 258q3 24 3 41q0 23 -6 41q-6 20 -20.5 31.5t-36.5 11.5q-23 0 -41 -12t-29 -33q-16 -27 -23 -80q-2 -14 -2 -38q0 -26 5 -41q6 -20 21.5 -32.5t38.5 -12.5q44 0 68 46q17 28 22 78zM147 579q0 4 3 8l83 105q5 8 14 8h155q10 0 13 -8
l59 -105q2 -4 2 -6q0 -4 -3.5 -6.5t-8.5 -2.5h-104q-10 0 -13 8l-26 53q-1 3 -3 3t-3 -3l-39 -53q-5 -8 -14 -8h-106q-9 0 -9 7zM582 706q0 -4 -3 -6.5t-8 -2.5h-99q-9 0 -12 7l-59 100q-2 4 -2 7t3 5.5t8 2.5h119q9 0 14 -9l38 -99q1 -2 1 -5z" />
    <glyph glyph-name="uni1EA8" unicode="&#x1ea8;" horiz-adv-x="673" 
d="M463 3q-3 3 -4 7l-14 89q-2 4 -5 4h-221q-3 0 -5 -4l-36 -89q-5 -10 -15 -10h-148q-6 0 -8.5 3.5t0.5 10.5l290 676q5 10 14 10h183q9 0 12 -10l125 -676v-4q0 -10 -11 -10h-149q-5 0 -8 3zM273 231h144q5 0 5 6l-42 257q-1 4 -3 3.5t-3 -3.5l-104 -257q-3 -6 3 -6z
M245 762q0 4 3 8l83 105q5 8 14 8h155q10 0 13 -8l59 -105q2 -4 2 -6q0 -4 -3.5 -6.5t-8.5 -2.5h-104q-10 0 -13 8l-26 53q-1 3 -3 3t-3 -3l-39 -53q-5 -8 -14 -8h-106q-9 0 -9 7zM559 872q-2 4 2 10q15 29 37 51q11 12 15.5 19t6.5 20v1q0 7 -6 13t-14 6q-12 0 -21 -6
t-25 -23q-9 -9 -17 -2l-36 30q-5 5 -5 9t4 8q26 33 51.5 47t61.5 14q42 0 66 -21.5t24 -58.5q0 -31 -11.5 -50t-34.5 -41q-22 -20 -30 -33q-7 -8 -15 -7l-45 9q-6 1 -8 5z" />
    <glyph glyph-name="uni1EA9" unicode="&#x1ea9;" horiz-adv-x="518" 
d="M398.5 513.5q3.5 3.5 8.5 3.5h138q5 0 8 -3.5t2 -8.5l-61 -493q-1 -5 -4.5 -8.5t-8.5 -3.5h-138q-5 0 -8 3.5t-2 8.5l5 38q0 3 -1.5 4t-4.5 -2q-47 -60 -123 -60q-65 0 -110.5 41.5t-57.5 112.5q-4 21 -4 48q0 28 5 66q8 74 35 128q28 60 82 98.5t122 38.5q74 0 103 -51
q2 -3 4 -2t2 4l4 29q1 5 4.5 8.5zM363 258q3 24 3 41q0 23 -6 41q-6 20 -20.5 31.5t-36.5 11.5q-23 0 -41 -12t-29 -33q-16 -27 -23 -80q-2 -14 -2 -38q0 -26 5 -41q6 -20 21.5 -32.5t38.5 -12.5q44 0 68 46q17 28 22 78zM147 579q0 4 3 8l83 105q5 8 14 8h155q10 0 13 -8
l59 -105q2 -4 2 -6q0 -4 -3.5 -6.5t-8.5 -2.5h-104q-10 0 -13 8l-26 53q-1 3 -3 3t-3 -3l-39 -53q-5 -8 -14 -8h-106q-9 0 -9 7zM461 689q-2 4 2 10q15 29 37 51q11 12 15.5 19t6.5 20v1q0 7 -6 13t-14 6q-12 0 -21 -6t-25 -23q-9 -9 -17 -2l-36 30q-5 5 -5 9t4 8
q26 33 51.5 47t61.5 14q42 0 66 -21.5t24 -58.5q0 -31 -11.5 -50t-34.5 -41q-22 -20 -30 -33q-7 -8 -15 -7l-45 9q-6 1 -8 5z" />
    <glyph glyph-name="uni1EAA" unicode="&#x1eaa;" horiz-adv-x="673" 
d="M463 3q-3 3 -4 7l-14 89q-2 4 -5 4h-221q-3 0 -5 -4l-36 -89q-5 -10 -15 -10h-148q-6 0 -8.5 3.5t0.5 10.5l290 676q5 10 14 10h183q9 0 12 -10l125 -676v-4q0 -10 -11 -10h-149q-5 0 -8 3zM273 231h144q5 0 5 6l-42 257q-1 4 -3 3.5t-3 -3.5l-104 -257q-3 -6 3 -6z
M245 762q0 4 3 8l83 105q5 8 14 8h155q10 0 13 -8l59 -105q2 -4 2 -6q0 -4 -3.5 -6.5t-8.5 -2.5h-104q-10 0 -13 8l-26 53q-1 3 -3 3t-3 -3l-39 -53q-5 -8 -14 -8h-106q-9 0 -9 7zM455.5 920q-13.5 4 -29.5 13q-18 9 -27.5 12t-19.5 3q-32 0 -54 -20q-11 -10 -17 -1l-42 54
q-3 5 -3 8q0 4 3 8q20 30 50.5 48.5t66.5 18.5q19 0 33.5 -5t26 -10.5t14.5 -7.5q12 -7 24 -11.5t23 -4.5q27 0 48 22q11 11 16 1l37 -56q5 -7 2 -13q-15 -27 -46 -45t-71 -18q-21 0 -34.5 4z" />
    <glyph glyph-name="uni1EAB" unicode="&#x1eab;" horiz-adv-x="518" 
d="M398.5 513.5q3.5 3.5 8.5 3.5h138q5 0 8 -3.5t2 -8.5l-61 -493q-1 -5 -4.5 -8.5t-8.5 -3.5h-138q-5 0 -8 3.5t-2 8.5l5 38q0 3 -1.5 4t-4.5 -2q-47 -60 -123 -60q-65 0 -110.5 41.5t-57.5 112.5q-4 21 -4 48q0 28 5 66q8 74 35 128q28 60 82 98.5t122 38.5q74 0 103 -51
q2 -3 4 -2t2 4l4 29q1 5 4.5 8.5zM363 258q3 24 3 41q0 23 -6 41q-6 20 -20.5 31.5t-36.5 11.5q-23 0 -41 -12t-29 -33q-16 -27 -23 -80q-2 -14 -2 -38q0 -26 5 -41q6 -20 21.5 -32.5t38.5 -12.5q44 0 68 46q17 28 22 78zM147 579q0 4 3 8l83 105q5 8 14 8h155q10 0 13 -8
l59 -105q2 -4 2 -6q0 -4 -3.5 -6.5t-8.5 -2.5h-104q-10 0 -13 8l-26 53q-1 3 -3 3t-3 -3l-39 -53q-5 -8 -14 -8h-106q-9 0 -9 7zM357.5 737q-13.5 4 -29.5 13q-18 9 -27.5 12t-19.5 3q-32 0 -54 -20q-11 -10 -17 -1l-42 54q-3 5 -3 8q0 4 3 8q20 30 50.5 48.5t66.5 18.5
q19 0 33.5 -5t26 -10.5t14.5 -7.5q12 -7 24 -11.5t23 -4.5q27 0 48 22q11 11 16 1l37 -56q5 -7 2 -13q-15 -27 -46 -45t-71 -18q-21 0 -34.5 4z" />
    <glyph glyph-name="uni1EAC" unicode="&#x1eac;" horiz-adv-x="673" 
d="M463 3q-3 3 -4 7l-14 89q-2 4 -5 4h-221q-3 0 -5 -4l-36 -89q-5 -10 -15 -10h-148q-6 0 -8.5 3.5t0.5 10.5l290 676q5 10 14 10h183q9 0 12 -10l125 -676v-4q0 -10 -11 -10h-149q-5 0 -8 3zM273 231h144q5 0 5 6l-42 257q-1 4 -3 3.5t-3 -3.5l-104 -257q-3 -6 3 -6z
M237 -208.5q-20 19.5 -20 51.5q0 42 26.5 69t66.5 27q32 0 51.5 -19.5t19.5 -51.5q0 -41 -26.5 -68.5t-64.5 -27.5q-33 0 -53 19.5zM245 762q0 4 3 8l83 105q5 8 14 8h155q10 0 13 -8l59 -105q2 -4 2 -6q0 -4 -3.5 -6.5t-8.5 -2.5h-104q-10 0 -13 8l-26 53q-1 3 -3 3t-3 -3
l-39 -53q-5 -8 -14 -8h-106q-9 0 -9 7z" />
    <glyph glyph-name="uni1EAD" unicode="&#x1ead;" horiz-adv-x="518" 
d="M398.5 513.5q3.5 3.5 8.5 3.5h138q5 0 8 -3.5t2 -8.5l-61 -493q-1 -5 -4.5 -8.5t-8.5 -3.5h-138q-5 0 -8 3.5t-2 8.5l5 38q0 3 -1.5 4t-4.5 -2q-47 -60 -123 -60q-65 0 -110.5 41.5t-57.5 112.5q-4 21 -4 48q0 28 5 66q8 74 35 128q28 60 82 98.5t122 38.5q74 0 103 -51
q2 -3 4 -2t2 4l4 29q1 5 4.5 8.5zM363 258q3 24 3 41q0 23 -6 41q-6 20 -20.5 31.5t-36.5 11.5q-23 0 -41 -12t-29 -33q-16 -27 -23 -80q-2 -14 -2 -38q0 -26 5 -41q6 -20 21.5 -32.5t38.5 -12.5q44 0 68 46q17 28 22 78zM160 -208.5q-20 19.5 -20 51.5q0 42 26.5 69
t66.5 27q32 0 51.5 -19.5t19.5 -51.5q0 -41 -26.5 -68.5t-64.5 -27.5q-33 0 -53 19.5zM147 579q0 4 3 8l83 105q5 8 14 8h155q10 0 13 -8l59 -105q2 -4 2 -6q0 -4 -3.5 -6.5t-8.5 -2.5h-104q-10 0 -13 8l-26 53q-1 3 -3 3t-3 -3l-39 -53q-5 -8 -14 -8h-106q-9 0 -9 7z" />
    <glyph glyph-name="uni1EAE" unicode="&#x1eae;" horiz-adv-x="673" 
d="M463 3q-3 3 -4 7l-14 89q-2 4 -5 4h-221q-3 0 -5 -4l-36 -89q-5 -10 -15 -10h-148q-6 0 -8.5 3.5t0.5 10.5l290 676q5 10 14 10h183q9 0 12 -10l125 -676v-4q0 -10 -11 -10h-149q-5 0 -8 3zM273 231h144q5 0 5 6l-42 257q-1 4 -3 3.5t-3 -3.5l-104 -257q-3 -6 3 -6z
M297.5 775.5q-41.5 32.5 -41.5 83.5q0 15 12 15h71q9 0 11 -11q2 -20 20 -32t46 -12t49 12t29 32q3 11 13 11h69q12 0 10 -9q-11 -53 -61 -87.5t-119 -34.5q-67 0 -108.5 32.5zM359.5 922q-1.5 4 1.5 10l63 99q6 9 16 9h119q9 0 9 -6q0 -5 -4 -9l-83 -100q-6 -7 -15 -7h-99
q-6 0 -7.5 4z" />
    <glyph glyph-name="uni1EAF" unicode="&#x1eaf;" horiz-adv-x="518" 
d="M398.5 513.5q3.5 3.5 8.5 3.5h138q5 0 8 -3.5t2 -8.5l-61 -493q-1 -5 -4.5 -8.5t-8.5 -3.5h-138q-5 0 -8 3.5t-2 8.5l5 38q0 3 -1.5 4t-4.5 -2q-47 -60 -123 -60q-65 0 -110.5 41.5t-57.5 112.5q-4 21 -4 48q0 28 5 66q8 74 35 128q28 60 82 98.5t122 38.5q74 0 103 -51
q2 -3 4 -2t2 4l4 29q1 5 4.5 8.5zM363 258q3 24 3 41q0 23 -6 41q-6 20 -20.5 31.5t-36.5 11.5q-23 0 -41 -12t-29 -33q-16 -27 -23 -80q-2 -14 -2 -38q0 -26 5 -41q6 -20 21.5 -32.5t38.5 -12.5q44 0 68 46q17 28 22 78zM199.5 592.5q-41.5 32.5 -41.5 83.5q0 15 12 15h71
q9 0 11 -11q2 -20 20 -32t46 -12t49 12t29 32q3 11 13 11h69q12 0 10 -9q-11 -53 -61 -87.5t-119 -34.5q-67 0 -108.5 32.5zM261.5 739q-1.5 4 1.5 10l63 99q6 9 16 9h119q9 0 9 -6q0 -5 -4 -9l-83 -100q-6 -7 -15 -7h-99q-6 0 -7.5 4z" />
    <glyph glyph-name="uni1EB0" unicode="&#x1eb0;" horiz-adv-x="673" 
d="M463 3q-3 3 -4 7l-14 89q-2 4 -5 4h-221q-3 0 -5 -4l-36 -89q-5 -10 -15 -10h-148q-6 0 -8.5 3.5t0.5 10.5l290 676q5 10 14 10h183q9 0 12 -10l125 -676v-4q0 -10 -11 -10h-149q-5 0 -8 3zM273 231h144q5 0 5 6l-42 257q-1 4 -3 3.5t-3 -3.5l-104 -257q-3 -6 3 -6z
M297.5 775.5q-41.5 32.5 -41.5 83.5q0 15 12 15h71q9 0 11 -11q2 -20 20 -32t46 -12t49 12t29 32q3 11 13 11h69q12 0 10 -9q-11 -53 -61 -87.5t-119 -34.5q-67 0 -108.5 32.5zM490 927q0 -4 -3 -6.5t-8 -2.5h-99q-9 0 -12 7l-59 100q-2 4 -2 7t3 5.5t8 2.5h119q9 0 14 -9
l38 -99q1 -2 1 -5z" />
    <glyph glyph-name="uni1EB1" unicode="&#x1eb1;" horiz-adv-x="518" 
d="M398.5 513.5q3.5 3.5 8.5 3.5h138q5 0 8 -3.5t2 -8.5l-61 -493q-1 -5 -4.5 -8.5t-8.5 -3.5h-138q-5 0 -8 3.5t-2 8.5l5 38q0 3 -1.5 4t-4.5 -2q-47 -60 -123 -60q-65 0 -110.5 41.5t-57.5 112.5q-4 21 -4 48q0 28 5 66q8 74 35 128q28 60 82 98.5t122 38.5q74 0 103 -51
q2 -3 4 -2t2 4l4 29q1 5 4.5 8.5zM363 258q3 24 3 41q0 23 -6 41q-6 20 -20.5 31.5t-36.5 11.5q-23 0 -41 -12t-29 -33q-16 -27 -23 -80q-2 -14 -2 -38q0 -26 5 -41q6 -20 21.5 -32.5t38.5 -12.5q44 0 68 46q17 28 22 78zM199.5 592.5q-41.5 32.5 -41.5 83.5q0 15 12 15h71
q9 0 11 -11q2 -20 20 -32t46 -12t49 12t29 32q3 11 13 11h69q12 0 10 -9q-11 -53 -61 -87.5t-119 -34.5q-67 0 -108.5 32.5zM392 744q0 -4 -3 -6.5t-8 -2.5h-99q-9 0 -12 7l-59 100q-2 4 -2 7t3 5.5t8 2.5h119q9 0 14 -9l38 -99q1 -2 1 -5z" />
    <glyph glyph-name="uni1EB2" unicode="&#x1eb2;" horiz-adv-x="673" 
d="M463 3q-3 3 -4 7l-14 89q-2 4 -5 4h-221q-3 0 -5 -4l-36 -89q-5 -10 -15 -10h-148q-6 0 -8.5 3.5t0.5 10.5l290 676q5 10 14 10h183q9 0 12 -10l125 -676v-4q0 -10 -11 -10h-149q-5 0 -8 3zM273 231h144q5 0 5 6l-42 257q-1 4 -3 3.5t-3 -3.5l-104 -257q-3 -6 3 -6z
M297.5 775.5q-41.5 32.5 -41.5 83.5q0 15 12 15h71q9 0 11 -11q2 -20 20 -32t46 -12t49 12t29 32q3 11 13 11h69q12 0 10 -9q-11 -53 -61 -87.5t-119 -34.5q-67 0 -108.5 32.5zM403 909q-2 4 2 10q15 29 37 51q11 12 15.5 19t6.5 20v1q0 7 -6 13t-14 6q-12 0 -21 -6t-25 -23
q-9 -9 -17 -2l-36 30q-5 5 -5 9t4 8q26 33 51.5 47t61.5 14q42 0 66 -21.5t24 -58.5q0 -31 -11.5 -50t-34.5 -41q-22 -20 -30 -33q-7 -8 -15 -7l-45 9q-6 1 -8 5z" />
    <glyph glyph-name="uni1EB3" unicode="&#x1eb3;" horiz-adv-x="518" 
d="M398.5 513.5q3.5 3.5 8.5 3.5h138q5 0 8 -3.5t2 -8.5l-61 -493q-1 -5 -4.5 -8.5t-8.5 -3.5h-138q-5 0 -8 3.5t-2 8.5l5 38q0 3 -1.5 4t-4.5 -2q-47 -60 -123 -60q-65 0 -110.5 41.5t-57.5 112.5q-4 21 -4 48q0 28 5 66q8 74 35 128q28 60 82 98.5t122 38.5q74 0 103 -51
q2 -3 4 -2t2 4l4 29q1 5 4.5 8.5zM363 258q3 24 3 41q0 23 -6 41q-6 20 -20.5 31.5t-36.5 11.5q-23 0 -41 -12t-29 -33q-16 -27 -23 -80q-2 -14 -2 -38q0 -26 5 -41q6 -20 21.5 -32.5t38.5 -12.5q44 0 68 46q17 28 22 78zM199.5 592.5q-41.5 32.5 -41.5 83.5q0 15 12 15h71
q9 0 11 -11q2 -20 20 -32t46 -12t49 12t29 32q3 11 13 11h69q12 0 10 -9q-11 -53 -61 -87.5t-119 -34.5q-67 0 -108.5 32.5zM305 726q-2 4 2 10q15 29 37 51q11 12 15.5 19t6.5 20v1q0 7 -6 13t-14 6q-12 0 -21 -6t-25 -23q-9 -9 -17 -2l-36 30q-5 5 -5 9t4 8q26 33 51.5 47
t61.5 14q42 0 66 -21.5t24 -58.5q0 -31 -11.5 -50t-34.5 -41q-22 -20 -30 -33q-7 -8 -15 -7l-45 9q-6 1 -8 5z" />
    <glyph glyph-name="uni1EB4" unicode="&#x1eb4;" horiz-adv-x="673" 
d="M463 3q-3 3 -4 7l-14 89q-2 4 -5 4h-221q-3 0 -5 -4l-36 -89q-5 -10 -15 -10h-148q-6 0 -8.5 3.5t0.5 10.5l290 676q5 10 14 10h183q9 0 12 -10l125 -676v-4q0 -10 -11 -10h-149q-5 0 -8 3zM273 231h144q5 0 5 6l-42 257q-1 4 -3 3.5t-3 -3.5l-104 -257q-3 -6 3 -6z
M450 896.5q-12 3.5 -26 10.5q-13 6 -22.5 9.5t-18.5 3.5q-25 0 -43 -16q-11 -10 -17 -1l-33 43q-4 6 -4 9q0 4 3 8q17 25 43 40.5t56 15.5q18 0 30.5 -5t31.5 -15q11 -6 20.5 -9.5t19.5 -3.5q24 0 39 16q6 6 10 6t7 -5l30 -44q5 -7 2 -13q-14 -23 -40 -38t-59 -15
q-17 0 -29 3.5zM297.5 775.5q-41.5 32.5 -41.5 83.5q0 15 12 15h71q9 0 11 -11q2 -20 20 -32t46 -12t49 12t29 32q3 11 13 11h69q11 0 10 -9q-11 -53 -61 -87.5t-119 -34.5q-67 0 -108.5 32.5z" />
    <glyph glyph-name="uni1EB5" unicode="&#x1eb5;" horiz-adv-x="518" 
d="M398.5 513.5q3.5 3.5 8.5 3.5h138q5 0 8 -3.5t2 -8.5l-61 -493q-1 -5 -4.5 -8.5t-8.5 -3.5h-138q-5 0 -8 3.5t-2 8.5l5 38q0 3 -1.5 4t-4.5 -2q-47 -60 -123 -60q-65 0 -110.5 41.5t-57.5 112.5q-4 21 -4 48q0 28 5 66q8 74 35 128q28 60 82 98.5t122 38.5q74 0 103 -51
q2 -3 4 -2t2 4l4 29q1 5 4.5 8.5zM363 258q3 24 3 41q0 23 -6 41q-6 20 -20.5 31.5t-36.5 11.5q-23 0 -41 -12t-29 -33q-16 -27 -23 -80q-2 -14 -2 -38q0 -26 5 -41q6 -20 21.5 -32.5t38.5 -12.5q44 0 68 46q17 28 22 78zM352 713.5q-12 3.5 -26 10.5q-13 6 -22.5 9.5
t-18.5 3.5q-25 0 -43 -16q-11 -10 -17 -1l-33 43q-4 6 -4 9q0 4 3 8q17 25 43 40.5t56 15.5q18 0 30.5 -5t31.5 -15q11 -6 20.5 -9.5t19.5 -3.5q24 0 39 16q6 6 10 6t7 -5l30 -44q5 -7 2 -13q-14 -23 -40 -38t-59 -15q-17 0 -29 3.5zM199.5 592.5q-41.5 32.5 -41.5 83.5
q0 15 12 15h71q9 0 11 -11q2 -20 20 -32t46 -12t49 12t29 32q3 11 13 11h69q11 0 10 -9q-11 -53 -61 -87.5t-119 -34.5q-67 0 -108.5 32.5z" />
    <glyph glyph-name="uni1EB6" unicode="&#x1eb6;" horiz-adv-x="673" 
d="M463 3q-3 3 -4 7l-14 89q-2 4 -5 4h-221q-3 0 -5 -4l-36 -89q-5 -10 -15 -10h-148q-6 0 -8.5 3.5t0.5 10.5l290 676q5 10 14 10h183q9 0 12 -10l125 -676v-4q0 -10 -11 -10h-149q-5 0 -8 3zM273 231h144q5 0 5 6l-42 257q-1 4 -3 3.5t-3 -3.5l-104 -257q-3 -6 3 -6z
M237 -208.5q-20 19.5 -20 51.5q0 42 26.5 69t66.5 27q32 0 51.5 -19.5t19.5 -51.5q0 -41 -26.5 -68.5t-64.5 -27.5q-33 0 -53 19.5zM297.5 775.5q-41.5 32.5 -41.5 83.5q0 15 12 15h71q9 0 11 -11q2 -20 20 -32t46 -12t49 12t29 32q3 11 13 11h69q12 0 10 -9
q-11 -53 -61 -87.5t-119 -34.5q-67 0 -108.5 32.5z" />
    <glyph glyph-name="uni1EB7" unicode="&#x1eb7;" horiz-adv-x="518" 
d="M398.5 513.5q3.5 3.5 8.5 3.5h138q5 0 8 -3.5t2 -8.5l-61 -493q-1 -5 -4.5 -8.5t-8.5 -3.5h-138q-5 0 -8 3.5t-2 8.5l5 38q0 3 -1.5 4t-4.5 -2q-47 -60 -123 -60q-65 0 -110.5 41.5t-57.5 112.5q-4 21 -4 48q0 28 5 66q8 74 35 128q28 60 82 98.5t122 38.5q74 0 103 -51
q2 -3 4 -2t2 4l4 29q1 5 4.5 8.5zM363 258q3 24 3 41q0 23 -6 41q-6 20 -20.5 31.5t-36.5 11.5q-23 0 -41 -12t-29 -33q-16 -27 -23 -80q-2 -14 -2 -38q0 -26 5 -41q6 -20 21.5 -32.5t38.5 -12.5q44 0 68 46q17 28 22 78zM160 -208.5q-20 19.5 -20 51.5q0 42 26.5 69
t66.5 27q32 0 51.5 -19.5t19.5 -51.5q0 -41 -26.5 -68.5t-64.5 -27.5q-33 0 -53 19.5zM199.5 592.5q-41.5 32.5 -41.5 83.5q0 15 12 15h71q9 0 11 -11q2 -20 20 -32t46 -12t49 12t29 32q3 11 13 11h69q12 0 10 -9q-11 -53 -61 -87.5t-119 -34.5q-67 0 -108.5 32.5z" />
    <glyph glyph-name="uni1EB8" unicode="&#x1eb8;" horiz-adv-x="559" 
d="M575.5 561.5q-3.5 -3.5 -8.5 -3.5h-304q-6 0 -6 -5l-15 -123q0 -5 4 -5h195q5 0 8 -3.5t2 -8.5l-14 -117q-1 -5 -4.5 -8.5t-8.5 -3.5h-195q-4 0 -6 -5l-16 -132q0 -5 4 -5h305q5 0 8 -3.5t2 -8.5l-14 -118q-1 -5 -4.5 -8.5t-8.5 -3.5h-459q-5 0 -8 3.5t-2 8.5l83 676
q0 5 4 8.5t9 3.5h459q5 0 8 -3.5t2 -8.5l-15 -118q-1 -5 -4.5 -8.5zM195 -208.5q-20 19.5 -20 51.5q0 42 26.5 69t66.5 27q32 0 51.5 -19.5t19.5 -51.5q0 -41 -26.5 -68.5t-64.5 -27.5q-33 0 -53 19.5z" />
    <glyph glyph-name="uni1EB9" unicode="&#x1eb9;" horiz-adv-x="532" 
d="M517 225q-3 -12 -15 -12h-295q-6 0 -6 -5q1 -15 6 -29q9 -21 31 -34t56 -13q60 0 101 41q4 5 9 5q4 0 7 -4l64 -88q3 -3 3 -7t-5 -9q-38 -38 -90.5 -58t-111.5 -20q-88 0 -145 39.5t-76 110.5q-9 33 -9 71q0 21 3 45q6 55 29 109q34 74 97.5 116.5t142.5 42.5
q64 0 111 -28.5t72.5 -79t26.5 -114.5q1 -30 -6 -79zM222 334q-3 -7 -7 -21q-2 -5 3 -5h138q5 0 5 5q0 7 -2 19q-4 25 -20.5 38t-43.5 13q-49 0 -73 -49zM182 -218.5q-20 19.5 -20 51.5q0 42 26.5 69t66.5 27q32 0 51.5 -19.5t19.5 -51.5q0 -41 -26.5 -68.5t-64.5 -27.5
q-33 0 -53 19.5z" />
    <glyph glyph-name="uni1EBA" unicode="&#x1eba;" horiz-adv-x="559" 
d="M575.5 561.5q-3.5 -3.5 -8.5 -3.5h-304q-6 0 -6 -5l-15 -123q0 -5 4 -5h195q5 0 8 -3.5t2 -8.5l-14 -117q-1 -5 -4.5 -8.5t-8.5 -3.5h-195q-4 0 -6 -5l-16 -132q0 -5 4 -5h305q5 0 8 -3.5t2 -8.5l-14 -118q-1 -5 -4.5 -8.5t-8.5 -3.5h-459q-5 0 -8 3.5t-2 8.5l83 676
q0 5 4 8.5t9 3.5h459q5 0 8 -3.5t2 -8.5l-15 -118q-1 -5 -4.5 -8.5zM335 751q-2 4 2 10q15 29 37 51q11 12 15.5 19t6.5 20v1q0 7 -6 13t-14 6q-12 0 -21 -6t-25 -23q-9 -9 -17 -2l-36 30q-5 5 -5 9t4 8q26 33 51.5 47t61.5 14q42 0 66 -21.5t24 -58.5q0 -31 -11.5 -50
t-34.5 -41q-22 -20 -30 -33q-7 -8 -15 -7l-45 9q-6 1 -8 5z" />
    </font>
</defs>
</svg>
