<?xml version="1.0" standalone="no"?>
<!DOCTYPE svg PUBLIC "-//W3C//DTD SVG 1.1//EN" "http://www.w3.org/Graphics/SVG/1.1/DTD/svg11.dtd" >
<svg xmlns="http://www.w3.org/2000/svg" xmlns:xlink="http://www.w3.org/1999/xlink" version="1.1">
<metadata>
Created by FontForge 20170731 at Mon Jan 18 07:23:53 2021
 By Aleksey,,,
Copyright 2017 The Barlow Project Authors (https://github.com/jpt/barlow)
</metadata>
<defs>
<font id="Barlow-BoldItalic" horiz-adv-x="1087" >
  <font-face 
    font-family="Barlow"
    font-weight="700"
    font-style="italic"
    font-stretch="normal"
    units-per-em="2048"
    panose-1="0 0 8 0 0 0 0 0 0 0"
    ascent="1638"
    descent="-410"
    x-height="1053"
    cap-height="1434"
    bbox="-1157.24 -501.524 2329.68 2009"
    underline-thickness="102"
    underline-position="-307"
    slope="-7"
    unicode-range="U+000D-25CA"
  />
<missing-glyph horiz-adv-x="942" 
d="M-39 12q0 -12 10 -12h920q12 0 12 12l174 1409q0 13 -10 13h-920q-12 0 -12 -13zM412 514q-34 0 -31 33l4 31q5 41 23 75.5t43 59t54 45.5t57.5 40t53 38t41 44t19.5 54q6 47 -23.5 75.5t-85.5 28.5q-61 0 -100 -30t-45 -80v-6q-6 -36 -39 -33l-131 6q-33 0 -33 18l2 15
q17 133 120.5 216t252.5 83q147 0 224.5 -78.5t62.5 -206.5q-7 -57 -31.5 -103t-56 -73.5t-67.5 -53.5t-66.5 -44.5t-52 -45t-25.5 -57.5l-2 -16q-3 -35 -37 -35h-131zM444 186q-51 0 -81.5 33.5t-24.5 83.5q5 47 45.5 82t91.5 35q48 0 79.5 -35t25.5 -82q-6 -49 -46 -83
t-90 -34z" />
    <glyph glyph-name="I_J.liga" unicode="IJ" horiz-adv-x="1693" 
d="M115 0q-32 0 -29 35l168 1364q3 35 37 35h213q34 0 28 -35l-165 -1364q-6 -35 -39 -35h-213zM1024 -16q-228 0 -351.5 128.5t-97.5 338.5l9 71q6 35 39 35h213q34 0 28 -35l-8 -71q-12 -99 42 -159.5t155 -60.5q104 0 175 61t83 159l116 948q3 35 37 35h211q34 0 31 -35
l-117 -948q-26 -210 -181.5 -338.5t-383.5 -128.5z" />
    <glyph glyph-name="f_f_i.liga" unicode="ffi" horiz-adv-x="1937" 
d="M1780 1147q-75 0 -118 48t-34 124q9 75 63.5 122.5t131.5 47.5q75 0 116.5 -47.5t32.5 -122.5q-9 -76 -63 -124t-129 -48zM1241 1104l-6 -39q0 -12 10 -12h187q33 0 30 -35l-20 -162q-3 -35 -37 -35h-188q-13 0 -13 -12l-96 -774q-3 -35 -37 -35h-213q-35 0 -29 35
l95 774q3 12 -11 12h-364q-12 0 -12 -12l-97 -774q-3 -35 -37 -35h-213q-34 0 -28 35l94 774q3 12 -10 12h-99q-33 0 -30 35l20 162q3 35 37 35h100q13 0 13 12l8 63q22 170 121.5 242.5t312.5 63.5h66q31 0 28 -35l-16 -127q-3 -35 -37 -35h-65q-66 -3 -95 -35t-37 -98
l-6 -39q0 -12 11 -12h364q12 0 12 12l9 63q22 170 121.5 242.5t312.5 63.5h67q32 0 29 -35l-16 -127q-3 -35 -37 -35h-66q-66 -3 -95.5 -35t-37.5 -98zM1532 0q-34 0 -31 35l121 983q6 35 39 35h213q16 0 24 -9t5 -26l-121 -983q-3 -35 -37 -35h-213z" />
    <glyph glyph-name="f_f_l.liga" unicode="ffl" horiz-adv-x="1910" 
d="M1241 1104l-6 -39q0 -12 10 -12h187q33 0 30 -35l-20 -162q-3 -35 -37 -35h-188q-13 0 -13 -12l-96 -774q-3 -35 -37 -35h-213q-35 0 -29 35l95 774q3 12 -11 12h-364q-12 0 -12 -12l-97 -774q-3 -35 -37 -35h-213q-34 0 -28 35l94 774q3 12 -10 12h-99q-33 0 -30 35
l20 162q3 35 37 35h100q13 0 13 12l8 63q22 170 121.5 242.5t312.5 63.5h66q31 0 28 -35l-16 -127q-3 -35 -37 -35h-65q-66 -3 -95 -35t-37 -98l-6 -39q0 -12 11 -12h364q12 0 12 12l9 63q22 170 121.5 242.5t312.5 63.5h67q32 0 29 -35l-16 -127q-3 -35 -37 -35h-66
q-66 -3 -95.5 -35t-37.5 -98zM1655 1399q6 35 39 35h213q34 0 28 -35l-168 -1364q-3 -35 -36 -35h-213q-35 0 -29 35z" />
    <glyph glyph-name="f_i.liga" unicode="fi" horiz-adv-x="1286" 
d="M1128 1153q-75 0 -116.5 48t-32.5 124q9 77 62.5 124.5t129.5 47.5t117.5 -47.5t32.5 -124.5t-62 -124.5t-131 -47.5zM766 1055q32 0 29 -35l-21 -174q-6 -35 -39 -35h-180q-11 0 -14 -12l-95 -764q-3 -35 -36 -35h-213q-35 0 -29 35l92 764q3 12 -10 12h-105
q-34 0 -28 35l20 174q3 35 39 35h105q11 0 14 12l4 43q23 187 118.5 258.5t315.5 65.5h66q31 0 28 -35l-18 -146q-3 -34 -37 -34h-55q-71 -2 -101.5 -30.5t-37.5 -101.5l-5 -20q0 -12 11 -12h182zM883 0q-34 0 -31 35l121 983q6 35 39 35h213q31 0 28 -35l-120 -983
q-3 -35 -39 -35h-211z" />
    <glyph glyph-name="f_l.liga" unicode="fl" horiz-adv-x="1263" 
d="M766 1055q32 0 29 -35l-21 -174q-6 -35 -39 -35h-180q-11 0 -14 -12l-95 -764q-3 -35 -36 -35h-213q-35 0 -29 35l92 764q3 12 -10 12h-105q-34 0 -28 35l20 174q3 35 39 35h105q11 0 14 12l4 43q23 187 118.5 258.5t315.5 65.5h66q31 0 28 -35l-18 -146q-3 -34 -37 -34
h-55q-71 -2 -101.5 -30.5t-37.5 -101.5l-5 -20q0 -12 11 -12h182zM870 0q-33 0 -30 35l168 1364q6 35 39 35h213q31 0 28 -35l-168 -1364q-3 -35 -37 -35h-213z" />
    <glyph glyph-name="g_j.liga" unicode="gj" horiz-adv-x="1576" 
d="M1436 1145q-74 0 -116.5 49.5t-33.5 122.5q9 71 66.5 120.5t126.5 49.5q68 0 114 -50t37 -120q-9 -73 -63.5 -122.5t-130.5 -49.5zM1063 1053q35 0 29 -35l-113 -924q-11 -95 -42 -172.5t-74 -131t-100.5 -92.5t-119 -60.5t-132 -31.5t-137 -9t-136.5 10q-28 3 -25 37
l31 190q1 17 13.5 25.5t29.5 5.5q115 -15 201.5 -3t141.5 70.5t68 163.5q2 7 -3 7q-4 0 -9 -5q-85 -82 -229 -82q-60 0 -114.5 14t-105.5 44t-87.5 85t-51.5 130q-16 87 0 243q21 162 68 261q58 125 166 200.5t239 75.5q153 0 222 -92q12 -12 16 6l4 35q3 35 37 35h213z
M1155 -4l127 1022q3 35 37 35h213q35 0 29 -35l-125 -1018q-19 -163 -76.5 -255t-155.5 -127.5t-258 -29.5q-35 0 -26 39l49 164q11 31 37 31q68 0 103.5 40t45.5 134zM717 367q23 65 37 168q11 102 2 163q-11 56 -49 89.5t-99 33.5q-60 0 -106 -33.5t-72 -89.5
q-34 -58 -49 -166q-12 -118 4 -163q11 -55 51.5 -89t102.5 -34q64 0 109.5 33t68.5 88z" />
    <glyph glyph-name="i_j.liga" unicode="ij" horiz-adv-x="989" 
d="M360 1153q-76 0 -117 47.5t-32 124.5q9 76 62 124t128 48q78 0 119.5 -47.5t32.5 -124.5q-11 -77 -64 -124.5t-129 -47.5zM846 1147q-74 0 -116.5 49.5t-33.5 122.5q9 71 66.5 120.5t126.5 49.5t114.5 -49.5t36.5 -120.5q-9 -73 -63.5 -122.5t-130.5 -49.5zM113 0
q-32 0 -29 35l121 983q3 35 37 35h213q33 0 30 -35l-120 -983q-6 -35 -39 -35h-213zM311 -418q-31 0 -28 35l20 174q6 33 41 33q111 -3 160.5 36.5t60.5 135.5l125 1022q6 35 39 35h213q35 0 29 -35l-125 -1018q-20 -165 -74.5 -254.5t-163 -128t-297.5 -35.5z" />
    <glyph glyph-name="hyphen_hyphen.liga" unicode="&#x2d;&#x2d;" horiz-adv-x="1308" 
d="M111 475q-34 0 -31 35l22 176q3 35 37 35h1127q33 0 30 -35l-22 -176q-3 -35 -37 -35h-1126z" />
    <glyph glyph-name=".notdef" horiz-adv-x="942" 
d="M-39 12q0 -12 10 -12h920q12 0 12 12l174 1409q0 13 -10 13h-920q-12 0 -12 -13zM412 514q-34 0 -31 33l4 31q5 41 23 75.5t43 59t54 45.5t57.5 40t53 38t41 44t19.5 54q6 47 -23.5 75.5t-85.5 28.5q-61 0 -100 -30t-45 -80v-6q-6 -36 -39 -33l-131 6q-33 0 -33 18l2 15
q17 133 120.5 216t252.5 83q147 0 224.5 -78.5t62.5 -206.5q-7 -57 -31.5 -103t-56 -73.5t-67.5 -53.5t-66.5 -44.5t-52 -45t-25.5 -57.5l-2 -16q-3 -35 -37 -35h-131zM444 186q-51 0 -81.5 33.5t-24.5 83.5q5 47 45.5 82t91.5 35q48 0 79.5 -35t25.5 -82q-6 -49 -46 -83
t-90 -34z" />
    <glyph glyph-name=".null" horiz-adv-x="0" 
 />
    <glyph glyph-name="nonmarkingreturn" horiz-adv-x="682" 
 />
    <glyph glyph-name="CR" unicode="&#xd;" horiz-adv-x="397" 
 />
    <glyph glyph-name="space" unicode=" " horiz-adv-x="397" 
 />
    <glyph glyph-name="exclam" unicode="!" horiz-adv-x="688" 
d="M285 492q-35 0 -29 34l82 873q3 19 11.5 27t25.5 8h213q32 0 26 -35l-133 -873q-3 -34 -39 -34h-157zM301 2q-78 0 -123.5 51.5t-36.5 126.5q9 72 70 124t133 52q70 0 119.5 -52t42.5 -124q-9 -74 -68.5 -126t-136.5 -52z" />
    <glyph glyph-name="quotedbl" unicode="&#x22;" horiz-adv-x="712" 
d="M168 965q-32 0 -29 32l23 396q0 18 10.5 27.5t26.5 9.5h198q37 0 31 -37l-76 -396q-6 -32 -37 -32h-147zM561 965q-32 0 -29 32l23 396q0 18 10.5 27.5t26.5 9.5h196q37 0 31 -37l-76 -396q-6 -32 -36 -32h-146z" />
    <glyph glyph-name="numbersign" unicode="#" horiz-adv-x="1363" 
d="M1335 862q-3 -35 -37 -35h-137q-9 0 -16 -10l-53 -201q-6 -12 10 -12h96q34 0 31 -35l-23 -176q-3 -35 -37 -35h-135q-13 0 -16 -10l-72 -260q-9 -33 -39 -33h-213q-37 0 -24 37l67 254q6 12 -10 12h-192q-12 0 -15 -10l-71 -260q-11 -33 -41 -33h-213q-15 0 -22 10
t-3 27l70 254q3 12 -11 12h-98q-35 0 -29 35l21 176q6 35 39 35h135q11 0 14 10l56 201q3 12 -11 12h-94q-16 0 -24 9t-5 26l21 178q6 35 39 35h133q11 0 14 10l72 261q11 32 41 32h213q15 0 22 -10t3 -27l-70 -254q-3 -12 10 -12h193q11 0 14 10l72 261q8 32 39 32h213
q37 0 24 -37l-67 -254q-6 -12 10 -12h100q34 0 31 -35zM795 604q9 0 16 10l53 201q6 12 -10 12h-192q-12 0 -15 -10l-55 -201q-3 -12 10 -12h193z" />
    <glyph glyph-name="dollar" unicode="$" horiz-adv-x="1095" 
d="M1032 408q-22 -171 -133.5 -282.5t-294.5 -135.5q-12 -3 -12 -15l-10 -92q-3 -35 -39 -35h-117q-35 0 -29 35l15 94q4 11 -9 15q-167 22 -249.5 119.5t-63.5 246.5l10 88q3 35 39 35h207q32 0 29 -26l-2 -29q-11 -83 34 -139t142 -56q89 0 141 47t60 115q5 41 -18.5 73.5
t-70 57.5t-97.5 46.5t-116.5 53t-111.5 64.5q-93 64 -136.5 147t-27.5 205q20 162 127 269t279 133q14 4 14 14l10 111q3 35 37 35h115q31 0 28 -35l-14 -109q-3 -10 8 -14q175 -20 261 -123.5t67 -263.5l-8 -68q-6 -35 -39 -35h-209q-15 0 -24 6t-7 15l2 20
q11 88 -32 147.5t-140 59.5q-84 0 -136.5 -40.5t-61.5 -110.5q-5 -38 10.5 -67t52 -51t73.5 -37.5t98.5 -39t102.5 -43.5q144 -69 202.5 -168.5t43.5 -236.5z" />
    <glyph glyph-name="percent" unicode="%" horiz-adv-x="1638" 
d="M498 805q-132 0 -213 94t-66 229q17 134 122 229t237 95q129 0 210 -95.5t64 -228.5q-17 -135 -119.5 -229t-234.5 -94zM336 0q-20 0 -25 12t6 29l908 1368q13 25 43 25h127q19 0 24 -12t-6 -29l-905 -1368q-16 -25 -45 -25h-127zM516 954q69 0 123 51t63 123t-32.5 122
t-110.5 50q-71 0 -126 -50t-64 -122q-9 -73 34.5 -123.5t112.5 -50.5zM1171 -18q-130 0 -210.5 95t-65.5 230q17 134 121.5 228t234.5 94q131 0 212.5 -94.5t64.5 -227.5q-17 -135 -121 -230t-236 -95zM1190 133q70 0 124.5 51t63.5 123t-33.5 122t-111.5 50q-70 0 -125 -50
t-64 -122q-9 -73 34 -123.5t112 -50.5z" />
    <glyph glyph-name="ampersand" unicode="&#x26;" horiz-adv-x="1398" 
d="M1253 43q12 -17 4 -30t-30 -13h-234q-23 0 -41 18q-10 13 -20.5 27t-21.5 30.5t-17 24.5q-9 9 -19 2q-197 -118 -409 -118q-89 0 -162.5 21.5t-129 63.5t-81 112.5t-14.5 162.5q9 71 37 132.5t72.5 110t91 85t106.5 73.5q13 7 6 17q-84 119 -108.5 182t-16.5 127
q22 171 145.5 275t307.5 104t290.5 -104t86.5 -269q-8 -67 -36 -124.5t-73 -103.5t-92.5 -80.5t-110.5 -70.5q-11 -6 -4 -16l162 -213q2 -5 7 -5t9 5q74 71 136 154q23 29 49 12l141 -90q28 -18 6 -49q-99 -135 -192 -224q-7 -7 0 -20q66 -94 155 -209zM694 1188
q-61 0 -101 -32t-46 -85q-3 -28 13 -63t73 -117q7 -10 16 -4q75 45 117 88t49 96q6 54 -27.5 85.5t-93.5 31.5zM545 227q85 12 180 68q13 6 6 16q-13 17 -40.5 53t-53.5 68q-20 24 -52 67t-42 56q-6 9 -17 2q-146 -88 -166 -188q-14 -74 37 -114t148 -28z" />
    <glyph glyph-name="quotesingle" unicode="'" horiz-adv-x="333" 
d="M168 969q-29 0 -29 32l23 394q0 18 10.5 27.5t26.5 9.5h213q36 0 30 -37l-75 -394q-6 -32 -37 -32h-162z" />
    <glyph glyph-name="parenleft" unicode="(" horiz-adv-x="690" 
d="M229 -186q-25 0 -39 20q-210 336 -149 846q33 268 129.5 484t230.5 370q17 20 43 20h203q21 0 27 -11t-6 -30q-256 -384 -312 -831q-56 -450 107 -827q7 -19 -1 -30t-28 -11h-205z" />
    <glyph glyph-name="parenright" unicode=")" horiz-adv-x="690" 
d="M379 -166q-20 -20 -45 -20h-203q-20 0 -26 11t6 30q255 375 311 827q56 448 -107 831q-9 19 -0.5 30t29.5 11h203q25 0 39 -20q97 -154 139.5 -370.5t9.5 -483.5q-64 -507 -356 -846z" />
    <glyph glyph-name="asterisk" unicode="*" horiz-adv-x="792" 
d="M410 805q-34 0 -31 35l22 172q2 7 -1.5 9.5t-10.5 -1.5l-168 -94q-33 -18 -45 12l-37 90q-10 30 21 47l168 86q14 9 2 17l-148 82q-29 16 -8 47l59 90q21 32 48 14l145 -92q14 -8 14 8l19 168q6 35 39 35h94q32 0 29 -35l-23 -168q0 -15 12 -8l168 92q31 16 45 -14
l37 -90q10 -32 -20 -47l-168 -82q-17 -8 -2 -17l147 -86q12 -8 14.5 -20.5t-6.5 -26.5l-59 -90q-18 -30 -47 -12l-146 94q-10 8 -14 -8l-18 -172q-6 -35 -39 -35h-92z" />
    <glyph glyph-name="plus" unicode="+" horiz-adv-x="964" 
d="M926 739q31 0 28 -34l-22 -179q-3 -34 -37 -34h-260q-11 0 -14 -13l-33 -264q-3 -35 -37 -35h-172q-32 0 -29 35l33 264q0 13 -10 13h-260q-34 0 -31 34l22 179q3 34 39 34h260q13 0 13 13l33 270q6 35 38 35h170q34 0 31 -35l-33 -270q-3 -13 11 -13h260z" />
    <glyph glyph-name="comma" unicode="," horiz-adv-x="526" 
d="M49 -201q-37 0 -24 37l118 455q3 15 14 24t25 9h183q17 0 23.5 -11t0.5 -28l-176 -457q-13 -29 -41 -29h-123z" />
    <glyph glyph-name="hyphen" unicode="-" horiz-adv-x="813" 
d="M111 481q-35 0 -29 35l20 178q6 35 39 35h629q34 0 31 -35l-23 -178q-3 -35 -37 -35h-630z" />
    <glyph glyph-name="period" unicode="." horiz-adv-x="530" 
d="M221 -8q-77 0 -122 52t-36 126q7 72 69 124t132 52q73 0 123 -52t41 -124q-9 -74 -68.5 -126t-138.5 -52z" />
    <glyph glyph-name="slash" unicode="/" horiz-adv-x="882" 
d="M39 0q-17 0 -24 12t1 29l674 1366q12 27 41 27h209q19 0 26 -12t-1 -29l-674 -1366q-12 -27 -41 -27h-211z" />
    <glyph glyph-name="zero" unicode="0" horiz-adv-x="1132" 
d="M522 -23q-219 0 -330.5 126t-85.5 343l66 541q26 214 168.5 338.5t361.5 124.5q220 0 332 -124.5t86 -338.5l-65 -541q-28 -217 -171.5 -343t-361.5 -126zM553 225q89 0 148 56t71 151l70 563q11 95 -35 151t-135 56q-88 0 -147.5 -56t-69.5 -151l-70 -563
q-12 -95 33.5 -151t134.5 -56z" />
    <glyph glyph-name="one" unicode="1" horiz-adv-x="673" 
d="M399 1425q21 9 43 9h226q31 0 28 -35l-168 -1364q-3 -35 -36 -35h-213q-34 0 -31 35l137 1116q1 6 -2.5 9.5t-9.5 2.5l-178 -37q-17 -3 -26.5 5.5t-8.5 25.5l18 156q7 31 31 39z" />
    <glyph glyph-name="two" unicode="2" horiz-adv-x="1112" 
d="M84 0q-34 0 -31 35l23 172q3 24 22 43q80 73 164.5 155.5t182.5 181t145 144.5q206 206 219 307q9 73 -35 118.5t-125 45.5q-79 0 -134 -46.5t-64 -121.5l-5 -41q-6 -35 -38 -35h-215q-32 0 -29 35l10 86q30 168 171.5 269.5t334.5 101.5q140 0 240.5 -55.5t144 -147
t29.5 -203.5q-19 -160 -213 -370q-41 -45 -96.5 -101t-94.5 -93.5t-116 -111.5t-111 -106q-4 -3 -5 -6.5t1.5 -5.5t7.5 -2h520q34 0 31 -35l-23 -178q-3 -35 -37 -35h-874z" />
    <glyph glyph-name="three" unicode="3" horiz-adv-x="1073" 
d="M991 684q29 -99 15 -217q-13 -105 -62 -205q-65 -130 -186 -204t-273 -74t-256.5 77.5t-138.5 210.5q-17 72 -10 162q3 35 37 35h215q33 0 30 -35q0 -56 11 -90q11 -53 47.5 -83t93.5 -30q110 0 164 101q35 60 45 143q11 86 -12 158q-31 96 -140 96q-33 0 -96 -39
q-28 -19 -45 8l-88 146q-16 29 10 49l344 278q4 3 5 6.5t-1.5 6t-7.5 2.5h-459q-33 0 -30 35l22 178q3 35 39 35h807q34 0 31 -35l-25 -201q-3 -25 -24 -43l-289 -244q-15 -12 4 -16q171 -35 223 -211z" />
    <glyph glyph-name="four" unicode="4" horiz-adv-x="1202" 
d="M1112 625q16 0 24 -9t5 -26l-23 -187q-3 -34 -39 -34h-69q-15 0 -15 -13l-39 -321q-6 -35 -38 -35h-213q-32 0 -29 35l39 321q3 13 -10 13h-601q-34 0 -28 34l18 148q3 25 12 43l455 813q13 27 41 27h227q20 0 25.5 -12t-4.5 -29l-418 -754q-8 -14 8 -14h295q15 0 15 12
l30 242q3 34 37 34h213q35 0 29 -34l-29 -242q-2 -5 1 -8.5t9 -3.5h72z" />
    <glyph glyph-name="five" unicode="5" horiz-adv-x="1071" 
d="M1016 653q18 -102 6 -194q-12 -105 -55 -189q-60 -130 -185.5 -207t-279.5 -77q-151 0 -256 75t-137 203q-14 45 -17 103q0 36 37 36h221q30 0 33 -28q4 -18 8 -29q11 -53 47.5 -81.5t93.5 -28.5q104 0 158 94q17 30 21 39q15 30 24 84q9 52 -4 112q-7 54 -45 82.5
t-100 28.5q-109 0 -162 -76q-18 -27 -43 -27h-229q-35 0 -29 35l96 791q3 35 39 35h801q31 0 28 -35l-22 -178q-3 -35 -37 -35h-543q-10 0 -14 -12l-37 -297q-2 -8 2 -10.5t10 1.5q98 58 211 58q138 0 234.5 -73.5t124.5 -199.5z" />
    <glyph glyph-name="six" unicode="6" horiz-adv-x="1067" 
d="M999 694q35 -92 19 -235q-14 -119 -64 -213q-67 -122 -185 -191t-265 -69q-153 0 -256 72t-137 202q-24 87 -11 201l76 616q20 168 157.5 270.5t336.5 102.5q195 0 303 -101.5t88 -265.5l-6 -47q-3 -35 -37 -35h-213q-16 0 -24.5 6.5t-6.5 16.5l2 20q8 68 -30.5 113
t-106.5 45q-74 0 -126.5 -46t-61.5 -118l-23 -188q-2 -8 2.5 -10t11.5 4q91 69 222 69q120 0 207 -56.5t128 -162.5zM692 326q36 55 45 129q10 79 -14 135q-42 82 -135 82q-107 0 -160 -84q-36 -51 -47 -137q-9 -70 10 -125q32 -90 141 -90q103 0 160 90z" />
    <glyph glyph-name="seven" unicode="7" horiz-adv-x="985" 
d="M219 0q-18 0 -23.5 12t3.5 29l561 1130q4 15 -6 15h-369q-4 0 -8 -3.5t-4 -8.5l-11 -82q-3 -35 -38 -35h-160q-34 0 -31 35l41 307q3 35 37 35h850q32 0 29 -35l-23 -191q-3 -21 -14 -43l-566 -1138q-12 -27 -41 -27h-227z" />
    <glyph glyph-name="eight" unicode="8" horiz-adv-x="1075" 
d="M991 631q33 -94 19 -213q-16 -121 -72 -209q-66 -105 -181.5 -165t-262.5 -60q-142 0 -243 58.5t-142 170.5q-37 94 -23 207q14 116 72 213q45 72 114 119q15 9 2 16q-50 44 -77 102q-39 80 -25 187q15 127 92 223q69 86 176.5 133t235.5 47q145 0 244.5 -55.5
t140.5 -163.5q32 -87 22 -186q-11 -99 -71 -181q-43 -54 -109 -104q-14 -7 -2 -16q65 -46 90 -123zM477 1124q-23 -42 -33 -102q-6 -61 17 -109q35 -77 139 -77q107 0 164 79q32 44 39 109q6 58 -8 96q-36 92 -150 92q-112 0 -168 -88zM676 299q45 58 57 147q6 57 -8 107
q-28 102 -147 102q-109 0 -168 -100q-29 -50 -35 -113q-11 -81 14 -137q40 -78 135 -78q96 0 152 72z" />
    <glyph glyph-name="nine" unicode="9" horiz-adv-x="1054" 
d="M1040 1174q26 -95 11 -201l-76 -617q-20 -168 -156.5 -270t-335.5 -102q-195 0 -304 101t-89 265l6 47q3 35 39 35h211q33 0 33 -20l-4 -23q-8 -68 30.5 -113t108.5 -45q72 0 124.5 46t61.5 118l23 189q2 8 -2.5 10t-11.5 -4q-90 -70 -222 -70q-120 0 -207 56.5
t-128 162.5q-35 92 -19 236q14 119 64 213q67 122 185 191t267 69q153 0 255 -72t136 -202zM723 846q36 51 47 137q10 76 -10 125q-32 90 -139 90q-106 0 -160 -90q-38 -53 -47 -129q-10 -81 16 -135q39 -82 135 -82q105 0 158 84z" />
    <glyph glyph-name="colon" unicode=":" horiz-adv-x="722" 
d="M408 682q-77 0 -122.5 51.5t-37.5 126.5q9 72 71.5 124t131.5 52q72 0 121 -52t40 -124q-9 -74 -68 -126t-136 -52zM326 12q-79 0 -124 51t-36 127q9 71 71 123t132 52q72 0 121 -52t40 -123q-9 -75 -67.5 -126.5t-136.5 -51.5z" />
    <glyph glyph-name="semicolon" unicode=";" horiz-adv-x="628" 
d="M354 641q-77 0 -121.5 52t-35.5 126q9 72 70.5 124t131.5 52q71 0 120 -52t40 -124q-9 -74 -67.5 -126t-137.5 -52zM119 -199q-36 0 -27 37l98 449q3 15 14 23.5t25 8.5h185q17 0 23.5 -10.5t0.5 -27.5l-159 -449q-9 -31 -39 -31h-121z" />
    <glyph glyph-name="less" unicode="&#x3c;" horiz-adv-x="964" 
d="M881 94q-3 -20 -15.5 -27t-27.5 1l-742 356q-26 13 -20 41l22 192q3 27 31 41l829 357q17 8 27.5 0.5t9.5 -27.5l-26 -201q-3 -27 -29 -39l-547 -219q-7 -3 -7.5 -8t5.5 -8l492 -217q25 -11 22 -39z" />
    <glyph glyph-name="equal" unicode="=" horiz-adv-x="964" 
d="M135 682q-35 0 -29 35l21 178q6 35 39 35h782q34 0 31 -35l-23 -178q-3 -35 -38 -35h-783zM88 289q-34 0 -31 35l23 178q3 35 37 35h784q32 0 29 -35l-23 -178q-3 -35 -37 -35h-782z" />
    <glyph glyph-name="greater" unicode="&#x3e;" horiz-adv-x="964" 
d="M66 68q-17 -8 -27.5 -1t-9.5 27l26 203q3 27 29 39l547 217q7 3 7.5 8t-5.5 8l-492 219q-25 11 -22 39l24 201q3 20 15.5 27.5t27.5 -0.5l742 -357q23 -13 20 -41l-22 -192q-3 -27 -31 -41z" />
    <glyph glyph-name="question" unicode="?" horiz-adv-x="1034" 
d="M393 455q-34 0 -28 34l6 56q10 79 53.5 140.5t99.5 101t112 75t97.5 81.5t48.5 101q8 66 -34.5 106t-120.5 40q-84 0 -139.5 -43t-63.5 -111l-4 -22q-3 -33 -37 -33l-211 8q-15 0 -24 7t-7 18l2 22q23 186 168 302t355 116q205 0 314 -109t87 -290q-8 -69 -34.5 -126
t-62.5 -95.5t-78 -70.5t-83 -58t-75.5 -51.5t-58 -58t-28.5 -69.5l-4 -37q-6 -34 -39 -34h-211zM455 -4q-70 0 -114 48t-36 116q9 67 65.5 115.5t125.5 48.5q68 0 113 -48.5t36 -115.5q-7 -67 -64 -115.5t-126 -48.5z" />
    <glyph glyph-name="at" unicode="@" horiz-adv-x="1626" 
d="M1036 1350q125 0 228.5 -34.5t175.5 -99t115.5 -155.5t48.5 -204t-25 -245q-48 -201 -157.5 -312.5t-270.5 -111.5q-140 0 -203 82q-5 8 -16 0q-89 -80 -221 -80q-106 0 -167.5 56t-66.5 145q-5 66 25 176q21 96 59 170q48 101 131 155t174 54q95 0 142 -59q2 -4 5 -5
t6 1.5t5 7.5l4 18q7 33 39 33h119q37 0 28 -37l-96 -370q-18 -71 1 -119.5t75 -48.5q124 0 186 233q47 188 11.5 314.5t-135 190.5t-252.5 64q-162 0 -306.5 -72.5t-249.5 -212t-145 -323.5q-59 -257 47.5 -410t337.5 -153q91 0 175 21.5t138 54.5q33 16 46 -8l53 -76
q20 -26 -13 -49q-85 -57 -204.5 -91t-243.5 -34q-141 0 -255.5 53t-187.5 152t-97 240t16 317q51 228 190.5 405.5t330.5 272t400 94.5zM760 354q78 0 129 86q30 51 47 129q18 81 18 125q0 39 -24.5 62.5t-65.5 23.5q-40 0 -76 -24t-57 -62q-22 -35 -49 -135
q-19 -78 -16 -119q3 -40 27.5 -63t66.5 -23z" />
    <glyph glyph-name="A" unicode="A" horiz-adv-x="1333" 
d="M975 0q-30 0 -33 29l-33 190q-3 10 -10 10h-487q-10 0 -13 -10l-80 -190q-13 -29 -40 -29h-232q-17 0 -23.5 11t1.5 28l591 1366q13 29 41 29h291q29 0 35 -29l256 -1366q3 -17 -6.5 -28t-26.5 -11h-231zM498 467q-3 -14 8 -14h352q12 0 12 14l-102 625q-1 5 -3.5 6.5
t-6 0t-6.5 -6.5z" />
    <glyph glyph-name="B" unicode="B" horiz-adv-x="1230" 
d="M999 750q-6 -3 -6.5 -8.5t4.5 -8.5q175 -97 148 -332q-17 -135 -92.5 -227t-185 -133t-246.5 -41h-506q-32 0 -29 35l168 1364q3 35 37 35h489q229 0 338.5 -95.5t83.5 -298.5q-23 -205 -203 -290zM518 1186q-12 0 -12 -12l-39 -316q-3 -12 10 -12h232q93 0 149.5 44.5
t67.5 123.5q9 80 -37 126t-139 46h-232zM651 250q92 0 149 47.5t66 132.5q11 85 -35 132.5t-139 47.5h-243q-12 0 -15 -12l-41 -336q0 -12 10 -12h248z" />
    <glyph glyph-name="C" unicode="C" horiz-adv-x="1208" 
d="M567 -16q-233 0 -357.5 136.5t-96.5 360.5l57 473q28 224 186.5 360t391.5 136q232 0 357 -129.5t99 -343.5q-3 -20 -35 -23l-213 -14q-11 -1 -19.5 0.5t-12 4t-2.5 5.5l2 13q12 107 -44.5 173t-162.5 66t-179 -66t-85 -173l-62 -494q-12 -107 44.5 -172.5t162.5 -65.5
q105 0 177.5 66t86.5 172q4 26 37 23l211 -11q33 -3 33 -10l-2 -10q-26 -215 -184 -346t-390 -131z" />
    <glyph glyph-name="D" unicode="D" horiz-adv-x="1226" 
d="M115 0q-32 0 -29 35l168 1364q3 35 37 35h487q224 0 346 -119.5t97 -315.5l-70 -565q-23 -196 -173.5 -315t-375.5 -119h-487zM393 260q0 -12 10 -12h240q92 0 156.5 63.5t77.5 169.5l59 471q12 106 -36.5 170t-143.5 64h-238q-12 0 -12 -12z" />
    <glyph glyph-name="E" unicode="E" horiz-adv-x="1159" 
d="M1196 1221q-3 -35 -37 -35h-641q-4 0 -8 -3.5t-4 -8.5l-39 -314q0 -12 10 -12h416q35 0 29 -35l-21 -178q-6 -35 -39 -35h-416q-12 0 -12 -12l-41 -328q0 -12 10 -12h641q32 0 29 -35l-22 -178q-3 -35 -37 -35h-899q-32 0 -29 35l168 1364q3 35 37 35h899q32 0 29 -35z
" />
    <glyph glyph-name="F" unicode="F" horiz-adv-x="1112" 
d="M1194 1221q-3 -35 -37 -35h-639q-4 0 -8 -3.5t-4 -8.5l-39 -314q0 -12 10 -12h416q35 0 29 -35l-21 -178q-6 -35 -39 -35h-416q-12 0 -12 -12l-67 -553q-6 -35 -39 -35h-213q-32 0 -29 35l168 1364q3 35 37 35h897q32 0 29 -35z" />
    <glyph glyph-name="G" unicode="G" horiz-adv-x="1206" 
d="M567 -16q-232 0 -357 138.5t-97 364.5l57 459q28 227 187 365.5t391 138.5q151 0 261 -61.5t160 -166.5t35 -235v-4q-6 -35 -39 -35h-213q-14 0 -23 5.5t-7 11.5l2 14q11 95 -45 159t-162 64t-179 -69t-87 -179l-58 -475q-13 -109 47.5 -178.5t167.5 -69.5
q104 0 172 56.5t80 156.5l12 91q0 12 -10 12h-211q-34 0 -28 35l20 168q3 34 37 34h465q34 0 31 -34l-33 -261q-29 -234 -185.5 -369.5t-390.5 -135.5z" />
    <glyph glyph-name="H" unicode="H" horiz-adv-x="1247" 
d="M991 1399q6 35 39 35h213q35 0 29 -35l-168 -1364q-3 -35 -37 -35h-213q-35 0 -29 35l68 553q0 12 -10 12h-437q-12 0 -12 -12l-67 -553q-6 -35 -39 -35h-213q-32 0 -29 35l168 1364q3 35 37 35h213q34 0 28 -35l-65 -539q0 -12 10 -12h436q13 0 13 12z" />
    <glyph glyph-name="I" unicode="I" horiz-adv-x="522" 
d="M115 0q-32 0 -29 35l168 1364q3 35 37 35h213q34 0 28 -35l-165 -1364q-6 -35 -39 -35h-213z" />
    <glyph glyph-name="J" unicode="J" horiz-adv-x="1171" 
d="M500 -16q-226 0 -349.5 128.5t-97.5 338.5l8 71q6 35 39 35h213q32 0 29 -35l-8 -71q-12 -99 41.5 -159.5t154.5 -60.5q104 0 175 61t83 159l117 948q3 35 37 35h211q34 0 31 -35l-117 -948q-26 -211 -182 -339t-385 -128z" />
    <glyph glyph-name="K" unicode="K" horiz-adv-x="1243" 
d="M115 0q-32 0 -29 35l168 1364q3 35 37 35h213q34 0 28 -35l-67 -559q-1 -8 3 -10t9 4l524 579q18 21 46 21h239q22 0 26.5 -12t-12.5 -31l-501 -570q-8 -8 -2 -16l364 -764q8 -17 0.5 -29t-26.5 -12h-240q-27 0 -39 23l-274 581q-3 6 -8.5 6t-10.5 -6l-141 -160
q-7 -10 -8 -14l-47 -395q-6 -35 -39 -35h-213z" />
    <glyph glyph-name="L" unicode="L" horiz-adv-x="1136" 
d="M115 0q-32 0 -29 35l168 1364q3 35 37 35h213q34 0 28 -35l-139 -1139q0 -12 10 -12h639q32 0 29 -35l-22 -178q-3 -35 -37 -35h-897z" />
    <glyph glyph-name="M" unicode="M" horiz-adv-x="1413" 
d="M117 0q-16 0 -24 9t-5 26l168 1364q3 35 37 35h213q26 0 37 -23l229 -479q2 -6 6.5 -6t9.5 6l351 479q17 23 43 23h213q31 0 28 -35l-168 -1364q-3 -35 -36 -35h-213q-34 0 -31 35l110 887q0 6 -2 8.5t-5 1.5t-7 -6l-242 -338q-17 -23 -43 -23h-100q-28 0 -37 23
l-157 338q-3 8 -9 6.5t-6 -10.5l-108 -887q-6 -35 -39 -35h-213z" />
    <glyph glyph-name="N" unicode="N" horiz-adv-x="1306" 
d="M115 0q-32 0 -29 35l168 1364q3 35 37 35h205q24 0 36 -23l394 -852q3 -8 8 -6.5t6 10.5l102 836q3 35 37 35h209q34 0 31 -35l-168 -1364q-6 -35 -39 -35h-203q-25 0 -37 25l-393 860q-3 8 -8 6.5t-6 -10.5l-100 -846q-6 -35 -39 -35h-211z" />
    <glyph glyph-name="O" unicode="O" horiz-adv-x="1232" 
d="M573 -23q-235 0 -361 144t-97 377l53 438q29 231 190.5 372.5t395.5 141.5q236 0 362.5 -142t97.5 -372l-53 -438q-28 -233 -190 -377t-398 -144zM604 225q110 0 186 72t91 190l55 451q13 120 -45 192t-168 72q-108 0 -183.5 -72.5t-90.5 -191.5l-56 -451
q-13 -118 44.5 -190t166.5 -72z" />
    <glyph glyph-name="P" unicode="P" horiz-adv-x="1185" 
d="M831 1436q198 0 304.5 -122.5t81.5 -322.5q-25 -195 -163.5 -314.5t-340.5 -119.5h-281q-11 0 -14 -12l-62 -510q-6 -35 -39 -35h-213q-31 0 -28 35l168 1366q3 35 37 35h550zM711 788q91 0 153.5 54.5t73.5 142.5q10 91 -38.5 146t-139.5 55h-250q-11 0 -14 -12
l-45 -373q-3 -13 10 -13h250z" />
    <glyph glyph-name="Q" unicode="Q" horiz-adv-x="1177" 
d="M727 1450q229 0 351 -141t93 -373l-55 -459q-23 -182 -133.5 -307.5t-280.5 -167.5q-12 -4 -12 -12l-18 -156q-6 -35 -39 -35h-213q-16 0 -24 9t-5 26l19 154q0 9 -9 12q-161 42 -242.5 168t-58.5 309l56 459q29 232 186.5 373t384.5 141zM836 483l57 467
q14 113 -40.5 182.5t-156.5 69.5q-101 0 -173 -70t-85 -182l-57 -467q-13 -112 41.5 -182t155.5 -70q102 0 173 69.5t85 182.5z" />
    <glyph glyph-name="R" unicode="R" horiz-adv-x="1220" 
d="M852 0q-27 0 -37 27l-176 557q0 10 -12 10h-181q-11 0 -14 -12l-65 -547q-6 -35 -39 -35h-213q-32 0 -29 35l168 1366q3 35 37 35h559q192 0 294 -119t79 -313q-19 -139 -98.5 -239.5t-202.5 -141.5q-6 -2 -9 -7.5t0 -9.5l193 -565q6 -17 -2 -29t-27 -12h-225zM518 1186
q-12 0 -12 -12l-43 -345q0 -12 10 -12h258q85 0 144 50t69 132q9 83 -37 135t-129 52h-260z" />
    <glyph glyph-name="S" unicode="S" horiz-adv-x="1175" 
d="M551 -16q-235 0 -361.5 116.5t-103.5 311.5l4 34q6 35 39 35h209q15 0 23.5 -7t7.5 -19l-4 -29q-9 -81 56 -138t181 -57q106 0 162.5 46t64.5 114q6 49 -27.5 86.5t-76.5 58.5t-153 65q-5 2 -7 3q-52 19 -87 33.5t-82.5 38.5t-79 47.5t-64.5 57.5t-50.5 71t-26 86.5
t-1.5 105.5q23 187 170.5 296.5t364.5 109.5q230 0 361 -121.5t108 -318.5l-4 -21q-3 -35 -37 -35h-209q-34 0 -31 21l2 20q10 85 -50.5 146t-180.5 61q-95 0 -151.5 -40.5t-65.5 -112.5q-4 -32 5 -57t26.5 -44t56.5 -40.5t79.5 -38.5t112.5 -44q143 -56 193 -84
q169 -94 187 -248q5 -44 -1 -94q-23 -188 -175 -301.5t-384 -113.5z" />
    <glyph glyph-name="T" unicode="T" horiz-adv-x="1161" 
d="M1206 1434q34 0 31 -35l-23 -180q-3 -35 -38 -35h-342q-12 0 -15 -13l-139 -1136q-3 -35 -39 -35h-211q-34 0 -31 35l140 1136q3 13 -11 13h-333q-16 0 -24 9t-5 26l22 180q3 35 37 35h981z" />
    <glyph glyph-name="U" unicode="U" horiz-adv-x="1249" 
d="M584 -16q-230 0 -355.5 135t-99.5 356l115 924q3 35 37 35h213q33 0 30 -35l-114 -926q-14 -108 42.5 -175t161.5 -67t178 67t87 175l112 926q6 35 39 35h213q35 0 29 -35l-113 -924q-28 -221 -185.5 -356t-389.5 -135z" />
    <glyph glyph-name="V" unicode="V" horiz-adv-x="1234" 
d="M461 0q-29 0 -35 29l-236 1366q-2 18 7 28.5t26 10.5h232q29 0 32 -29l140 -987q1 -8 8 -8t8 8l377 985q14 31 43 31h223q19 0 25.5 -11t-2.5 -28l-576 -1366q-13 -29 -41 -29h-231z" />
    <glyph glyph-name="W" unicode="W" horiz-adv-x="1714" 
d="M385 0q-15 0 -24 8.5t-9 22.5l-182 1364q-3 17 6.5 28t28.5 11h225q30 0 33 -31l86 -817q0 -5 3 -7t7 0t6 7l279 817q9 31 39 31h225q33 0 33 -31l96 -817q0 -6 2.5 -7.5t5.5 0.5t4 7l281 817q9 31 39 31h217q17 0 22.5 -11t-0.5 -28l-487 -1364q-9 -31 -41 -31h-219
q-32 0 -35 31l-90 870q-2 8 -7.5 8.5t-8.5 -8.5l-293 -870q-9 -31 -39 -31h-203z" />
    <glyph glyph-name="X" unicode="X" horiz-adv-x="1253" 
d="M55 0q-19 0 -24.5 12t6.5 29l459 668q5 7 2 16l-295 668q-8 17 0 29t28 12h232q30 0 39 -25l194 -459q3 -6 8.5 -6t8.5 6l309 459q16 25 45 25h227q20 0 25.5 -12t-6.5 -29l-459 -668q-4 -11 -2 -16l295 -668q9 -17 0 -29t-29 -12h-227q-30 0 -39 25l-197 456
q-6 13 -16 0l-309 -456q-16 -25 -45 -25h-230z" />
    <glyph glyph-name="Y" unicode="Y" horiz-adv-x="1224" 
d="M467 2q-35 0 -29 35l62 506q0 12 -2 16l-299 834q-6 17 1.5 29t26.5 12h232q28 0 35 -27l178 -533q2 -6 7 -6t9 6l307 533q17 27 43 27h232q20 0 26.5 -12t-4.5 -29l-508 -834q-6 -12 -6 -16l-63 -506q-3 -35 -37 -35h-211z" />
    <glyph glyph-name="Z" unicode="Z" horiz-adv-x="1105" 
d="M57 0q-34 0 -28 35l24 203q3 24 19 43l745 890q11 15 -6 15h-608q-16 0 -24 9t-5 26l23 178q3 35 36 35h900q33 0 30 -35l-24 -203q-3 -25 -21 -43l-743 -891q-6 -6 -4 -10t10 -4h606q34 0 31 -35l-23 -178q-3 -35 -37 -35h-901z" />
    <glyph glyph-name="bracketleft" unicode="[" horiz-adv-x="827" 
d="M27 -301q-35 0 -29 35l229 1870q3 34 37 34h451q33 0 30 -34l-22 -179q-3 -34 -37 -34h-192q-15 0 -15 -13l-174 -1417q0 -12 10 -12h195q34 0 31 -35l-23 -180q-6 -35 -39 -35h-452z" />
    <glyph glyph-name="backslash" unicode="\" horiz-adv-x="882" 
d="M797 41q3 -17 -6.5 -29t-28.5 -12h-209q-29 0 -35 27l-338 1366q-3 19 6.5 30t26.5 11h211q29 0 35 -27z" />
    <glyph glyph-name="bracketright" unicode="]" horiz-adv-x="827" 
d="M684 -266q-3 -35 -37 -35h-454q-32 0 -29 35l22 180q3 35 37 35h197q12 0 12 12l174 1417q0 13 -10 13h-193q-33 0 -30 34l22 179q3 34 39 34h451q34 0 28 -34z" />
    <glyph glyph-name="asciicircum" unicode="^" horiz-adv-x="940" 
d="M135 610q-19 0 -25 12t3 29l360 754q13 29 41 29h178q29 0 35 -29l182 -754q3 -19 -6.5 -30t-28.5 -11h-165q-31 0 -37 29l-97 485q-1 9 -6 9t-10 -9l-215 -485q-12 -29 -43 -29h-166z" />
    <glyph glyph-name="underscore" unicode="_" horiz-adv-x="1038" 
d="M33 0q-34 0 -31 35l18 149q3 35 39 35h895q34 0 31 -35l-18 -149q-6 -35 -39 -35h-895z" />
    <glyph glyph-name="grave" unicode="`" horiz-adv-x="485" 
d="M535 1217q13 -41 -29 -41h-166q-26 0 -39 22l-102 186q-11 17 -4 30t28 13h201q28 0 37 -24z" />
    <glyph glyph-name="a" unicode="a" horiz-adv-x="1101" 
d="M805 1018q3 35 37 35h213q33 0 30 -35l-120 -983q-6 -35 -39 -35h-213q-16 0 -24 9t-5 26l6 55q1 7 -3 8.5t-9 -4.5q-95 -110 -242 -110q-134 0 -227.5 82.5t-118.5 218.5q-21 99 -4 245q20 152 70 254q61 132 170.5 209.5t244.5 77.5q148 0 213 -100q4 -6 9.5 -4t5.5 10
zM678 324q48 76 63 202q18 130 -14 211q-42 80 -125 80q-90 0 -147 -78q-59 -82 -74 -215q-15 -124 16 -200q37 -88 135 -88q87 0 146 88z" />
    <glyph glyph-name="b" unicode="b" horiz-adv-x="1105" 
d="M1063 784q25 -104 8 -254q-22 -156 -65 -245q-57 -136 -171.5 -218.5t-248.5 -82.5q-147 0 -213 110q-2 4 -5 5t-6 -1.5t-4 -7.5l-6 -55q-6 -35 -39 -35h-213q-31 0 -28 35l168 1364q3 35 36 35h213q34 0 31 -35l-53 -422q0 -8 4 -10t10 4q90 100 238 100
q136 0 226.5 -78t117.5 -209zM709 324q52 77 67 200q15 139 -22 215q-38 78 -129 78q-83 0 -144 -80q-48 -75 -67 -211q-15 -126 16 -202q37 -88 123 -88q97 0 156 88z" />
    <glyph glyph-name="c" unicode="c" horiz-adv-x="1067" 
d="M510 -16q-158 0 -264.5 82.5t-139.5 224.5q-20 102 -4 241q16 132 64 238q65 139 192 219t285 80q160 0 270 -82t134 -207q8 -33 8 -63t-33 -37l-213 -33q-15 -3 -25 3.5t-10 19.5l-2 28q-8 53 -51 88t-109 35q-64 0 -111.5 -32.5t-72.5 -90.5q-32 -69 -43 -168
q-14 -104 0 -168q9 -61 49 -96t105 -35q63 0 113 34t75 91l4 11q2 9 15 20t28 8l205 -33q31 -7 22 -38q-3 -22 -16 -48q-59 -136 -188.5 -214t-286.5 -78z" />
    <glyph glyph-name="d" unicode="d" horiz-adv-x="1105" 
d="M852 1399q3 35 37 35h213q34 0 28 -35l-165 -1364q-6 -35 -39 -35h-213q-16 0 -24 9t-5 26l6 55q1 7 -3 8.5t-9 -4.5q-95 -110 -242 -110q-134 0 -227.5 82.5t-118.5 218.5q-21 99 -4 245q20 152 70 254q61 132 170.5 209.5t244.5 77.5q148 0 213 -100q4 -6 9.5 -4
t5.5 10zM678 324q48 76 63 202q18 130 -14 211q-42 80 -125 80q-90 0 -147 -78q-59 -82 -74 -215q-15 -124 16 -200q37 -88 135 -88q87 0 146 88z" />
    <glyph glyph-name="e" unicode="e" 
d="M584 227q134 6 213 95q29 29 47 4l100 -113q19 -22 -2 -49q-74 -84 -183.5 -132t-230.5 -48q-183 0 -290.5 96.5t-128.5 263.5q-15 89 -3 191q15 115 48 200q59 152 190 244t297 92q194 0 293.5 -119.5t107.5 -333.5q0 -78 -8 -149q-3 -35 -37 -35h-610q-12 0 -12 -12
q-3 -37 4 -64q13 -63 67 -97t138 -34zM606 821q-129 0 -180 -121q-15 -34 -18 -51q-3 -12 8 -12h338q12 0 12 12q0 19 -4 43q-11 60 -50.5 94.5t-105.5 34.5z" />
    <glyph glyph-name="f" unicode="f" horiz-adv-x="768" 
d="M766 1055q32 0 29 -35l-21 -174q-6 -35 -39 -35h-180q-11 0 -14 -12l-95 -764q-3 -35 -36 -35h-213q-35 0 -29 35l92 764q3 12 -10 12h-105q-34 0 -28 35l20 174q3 35 39 35h105q11 0 14 12l4 43q23 187 118.5 258.5t315.5 65.5h66q31 0 28 -35l-18 -146q-3 -34 -37 -34
h-55q-71 -2 -101.5 -30.5t-37.5 -101.5l-5 -20q0 -12 11 -12h182z" />
    <glyph glyph-name="g" unicode="g" horiz-adv-x="1103" 
d="M813 1018q3 35 37 35h213q35 0 29 -35l-113 -924q-11 -95 -42 -172.5t-74 -131t-100.5 -92.5t-119 -60.5t-132 -31.5t-137 -9t-136.5 10q-28 3 -25 37l31 190q1 17 13.5 25.5t29.5 5.5q115 -15 201.5 -3t141.5 70.5t68 163.5q2 7 -3 7q-4 0 -9 -5q-85 -82 -229 -82
q-60 0 -114.5 14t-105.5 44t-87.5 85t-51.5 130q-16 87 0 243q21 162 68 261q58 125 166 200.5t239 75.5q153 0 222 -92q12 -12 16 6zM717 367q23 65 37 168q11 102 2 163q-11 56 -49 89.5t-99 33.5q-60 0 -106 -33.5t-72 -89.5q-34 -58 -49 -166q-12 -118 4 -163
q11 -55 51.5 -89t102.5 -34q64 0 109.5 33t68.5 88z" />
    <glyph glyph-name="h" unicode="h" 
d="M727 1069q159 0 243.5 -100t63.5 -273l-80 -661q-6 -35 -39 -35h-213q-31 0 -28 35l74 602q11 82 -27.5 133t-110.5 51q-74 0 -126 -50.5t-62 -133.5l-74 -602q-3 -35 -39 -35h-211q-33 0 -30 35l168 1364q3 35 36 35h213q34 0 31 -35l-55 -438q0 -19 12 -7
q93 115 254 115z" />
    <glyph glyph-name="i" unicode="i" horiz-adv-x="516" 
d="M360 1153q-76 0 -117 47.5t-32 124.5q9 76 62 124t128 48q78 0 119.5 -47.5t32.5 -124.5q-11 -77 -64 -124.5t-129 -47.5zM113 0q-32 0 -29 35l121 983q3 35 37 35h213q33 0 30 -35l-120 -983q-6 -35 -39 -35h-213z" />
    <glyph glyph-name="j" unicode="j" horiz-adv-x="499" 
d="M356 1147q-74 0 -115.5 49.5t-33.5 122.5q9 71 66 120.5t126 49.5q70 0 115.5 -49.5t36.5 -120.5q-9 -73 -64 -122.5t-131 -49.5zM-176 -418q-34 0 -31 35l23 174q3 33 39 33q111 -3 161 36.5t62 135.5l125 1022q3 35 37 35h213q33 0 30 -35l-125 -1018
q-21 -165 -76 -254.5t-162.5 -128t-295.5 -35.5z" />
    <glyph glyph-name="k" unicode="k" horiz-adv-x="1058" 
d="M98 0q-33 0 -30 35l168 1364q3 35 36 35h213q34 0 31 -35l-84 -676q0 -8 4 -9t10 5l302 313q24 21 45 21h239q22 0 28 -12t-9 -31l-285 -316q-4 -4 -4 -16l215 -637q5 -18 -4 -29.5t-27 -11.5h-225q-28 0 -37 27l-135 469q-3 13 -14 2l-144 -162q-8 -12 -8 -14l-35 -287
q-3 -35 -39 -35h-211z" />
    <glyph glyph-name="l" unicode="l" horiz-adv-x="495" 
d="M100 0q-31 0 -28 35l168 1364q3 35 36 35h213q34 0 31 -35l-168 -1364q-6 -35 -39 -35h-213z" />
    <glyph glyph-name="m" unicode="m" horiz-adv-x="1658" 
d="M1327 1069q156 0 231.5 -97t53.5 -270l-82 -667q-3 -35 -39 -35h-211q-34 0 -31 35l74 604q10 83 -25 132.5t-104 49.5q-70 0 -120 -49t-60 -131l-74 -606q-3 -35 -39 -35h-209q-33 0 -30 35l73 604q10 83 -26.5 132.5t-106.5 49.5q-64 0 -110.5 -39t-65.5 -108l-78 -639
q-3 -35 -39 -35h-211q-33 0 -30 35l120 983q3 35 39 35h211q34 0 31 -35l-8 -66q-2 -8 3 -9.5t9 5.5q100 121 266 121q99 0 167.5 -42.5t99.5 -121.5q1 -5 3.5 -6.5t6 0.5t6.5 6q54 82 133 123t172 41z" />
    <glyph glyph-name="n" unicode="n" 
d="M727 1069q159 0 243.5 -100t63.5 -273l-80 -661q-6 -35 -39 -35h-213q-31 0 -28 35l74 602q11 82 -27.5 133t-110.5 51q-74 0 -126 -50.5t-62 -133.5l-74 -602q-3 -35 -39 -35h-211q-33 0 -30 35l120 983q3 35 39 35h211q34 0 31 -35l-8 -57q0 -19 12 -7q93 115 254 115z
" />
    <glyph glyph-name="o" unicode="o" horiz-adv-x="1105" 
d="M514 -16q-168 0 -276.5 89.5t-133.5 245.5q-15 90 -2 209q17 130 58 217q63 152 192 238t297 86q163 0 268.5 -85.5t133.5 -235.5q19 -101 4 -216q-11 -100 -51 -206q-65 -159 -194.5 -250.5t-295.5 -91.5zM545 231q64 0 114 41t80 113q23 59 33 143q10 95 2 146
q-11 70 -52.5 108.5t-109.5 38.5q-65 0 -115.5 -39t-78.5 -108q-24 -63 -33 -146q-10 -91 -2 -143q11 -72 52 -113t110 -41z" />
    <glyph glyph-name="p" unicode="p" horiz-adv-x="1110" 
d="M1071 768q21 -100 4 -246q-17 -153 -69 -254q-59 -131 -169 -208.5t-245 -77.5q-147 0 -215 100q-3 6 -8 4t-7 -10l-51 -422q-3 -35 -39 -35h-211q-33 0 -30 35l168 1364q3 35 37 35h213q33 0 30 -35l-8 -55q0 -8 4.5 -9.5t9.5 4.5q93 111 240 111q134 0 228.5 -82.5
t117.5 -218.5zM709 313q55 80 73 215q14 118 -16 201q-40 88 -135 88q-87 0 -146 -88q-50 -74 -65 -203q-16 -140 16 -211q39 -79 123 -79q91 0 150 77z" />
    <glyph glyph-name="q" unicode="q" horiz-adv-x="1110" 
d="M805 1018q3 35 37 35h213q33 0 30 -35l-167 -1364q-6 -35 -39 -35h-213q-32 0 -29 35l51 422q2 8 -3 10t-9 -4q-90 -100 -240 -100q-134 0 -225 77.5t-119 208.5q-23 98 -6 254q17 143 64 246q57 136 171 218.5t248 82.5q146 0 213 -111q4 -6 9.5 -4t5.5 9zM674 315
q52 75 67 211q16 131 -14 203q-37 88 -125 88q-97 0 -156 -88q-50 -79 -65 -201q-15 -137 20 -215q41 -77 131 -77q85 0 142 79z" />
    <glyph glyph-name="r" unicode="r" horiz-adv-x="761" 
d="M702 1067q62 0 103 -25q23 -10 12 -43l-63 -215q-4 -18 -13 -21.5t-28 -0.5q-44 13 -105 4q-72 -6 -127.5 -54.5t-64.5 -127.5l-68 -549q-3 -35 -39 -35h-211q-33 0 -30 35l120 983q3 35 39 35h211q34 0 31 -35l-8 -64q-2 -8 2 -10t10 4q94 119 229 119z" />
    <glyph glyph-name="s" unicode="s" horiz-adv-x="999" 
d="M469 -14q-200 0 -309 85t-92 220l2 10q3 35 36 35h201q33 0 33 -12l-2 -15q-6 -45 38 -76.5t118 -31.5q68 0 112 27t49 69q4 37 -30.5 56.5t-118 41.5t-131.5 43q-45 16 -78 31.5t-69 41.5t-57.5 55.5t-33 73.5t-4.5 97q19 152 144.5 241t312.5 89q191 0 296.5 -92.5
t88.5 -239.5q-2 -11 -12 -17.5t-25 -6.5h-195q-35 0 -32 12l2 12q5 46 -35 76.5t-113 30.5q-67 0 -112.5 -24.5t-51.5 -67.5q-2 -20 7.5 -35.5t26.5 -25.5t45.5 -20t55.5 -17t66.5 -17.5t69.5 -20.5q51 -16 89 -32t77 -42t62 -57t35 -76t5 -100q-20 -152 -147.5 -236.5
t-323.5 -84.5z" />
    <glyph glyph-name="t" unicode="t" horiz-adv-x="755" 
d="M756 856q-6 -35 -39 -35h-178q-12 0 -15 -12l-51 -424q-9 -67 14 -99t82 -32h56q33 0 30 -35l-22 -176q-1 -15 -11.5 -25t-25.5 -12q-78 -4 -111 -4q-81 0 -136 11.5t-97 40.5t-57.5 83t-6.5 135l66 537q3 12 -10 12h-101q-33 0 -30 35l20 162q3 35 37 35h102q12 0 15 12
l26 231q6 35 39 35h203q35 0 29 -35l-29 -231q0 -12 12 -12h178q16 0 24 -9t5 -26z" />
    <glyph glyph-name="u" unicode="u" horiz-adv-x="1083" 
d="M784 1018q3 35 39 35h211q34 0 31 -35l-121 -983q-3 -35 -39 -35h-211q-33 0 -30 35l6 55q1 7 -3.5 8.5t-9.5 -4.5q-91 -108 -258 -108q-151 0 -236.5 93.5t-64.5 264.5l82 674q6 35 39 35h211q32 0 29 -35l-74 -602q-11 -83 26 -134t111 -51q68 0 117.5 41.5t67.5 110.5
z" />
    <glyph glyph-name="v" unicode="v" horiz-adv-x="1032" 
d="M356 0q-28 0 -34 29l-187 985q-4 17 5 28t28 11h233q28 0 35 -31l82 -614q2 -8 9 -8t8 8l235 614q14 31 41 31l233 -2q19 0 25.5 -11t-2.5 -28l-426 -983q-13 -29 -43 -29h-242z" />
    <glyph glyph-name="w" unicode="w" horiz-adv-x="1556" 
d="M328 0q-29 0 -35 29l-158 985q-6 39 33 39h217q32 0 35 -31l61 -606q2 -8 8 -8.5t9 8.5l221 606q9 31 43 31h194q13 0 22 -8.5t11 -22.5l76 -608q1 -9 8 -9t8 9l226 608q10 31 43 31l217 -2q38 0 24 -39l-405 -983q-13 -29 -41 -29h-223q-29 0 -35 29l-82 536
q-3 8 -8.5 8.5t-8.5 -8.5l-196 -534q-5 -14 -16.5 -22.5t-24.5 -8.5h-223z" />
    <glyph glyph-name="x" unicode="x" horiz-adv-x="1069" 
d="M37 0q-20 0 -25 13t8 30l369 475q7 10 2 17l-252 475q-9 17 -0.5 30t29.5 13h225q24 0 37 -23l141 -272q3 -5 8.5 -5.5t8.5 5.5l207 272q16 23 41 23h243q20 0 25 -13t-8 -30l-367 -475q-7 -10 -2 -17l250 -475q9 -17 1 -30t-28 -13h-227q-24 0 -37 23l-139 272
q-1 6 -7 6t-10 -6l-206 -272q-16 -23 -41 -23h-246z" />
    <glyph glyph-name="y" unicode="y" horiz-adv-x="1003" 
d="M8 -408q-13 0 -10 35l20 168q3 35 17 35h12q123 0 179.5 32t92.5 130q3 9 3 16l-197 1006q-4 17 5 28t28 11h227q29 0 35 -29l88 -610q0 -5 3 -7t7 0t6 7l230 608q10 31 41 31h229q17 0 23.5 -11t-0.5 -28l-469 -1053q-41 -90 -73.5 -145t-76.5 -102.5t-99 -71.5
t-129.5 -37t-179.5 -13h-12z" />
    <glyph glyph-name="z" unicode="z" horiz-adv-x="913" 
d="M41 0q-32 0 -29 35l25 203q3 23 20 43l504 497q3 4 3.5 7.5t-1.5 5.5t-6 2h-405q-34 0 -31 34l24 191q3 35 37 35h723q34 0 31 -35l-25 -201q-3 -24 -22 -43l-516 -498q-3 -4 -3.5 -7t1.5 -5t6 -2h442q35 0 29 -35l-23 -192q-6 -35 -39 -35h-745z" />
    <glyph glyph-name="braceleft" unicode="{" horiz-adv-x="747" 
d="M395 -301q-128 0 -186 64.5t-41 189.5l51 424q10 84 -11 127.5t-77 54.5q-32 3 -29 35l21 162q1 15 11.5 24t25.5 11q58 11 90.5 54t42.5 126l51 415q13 124 87.5 188t203.5 64h170q34 0 31 -34l-23 -179q-6 -34 -39 -34h-43q-48 0 -82 -35t-41 -94l-41 -330
q-12 -99 -46.5 -159t-96.5 -91q-15 -6 -2 -14q55 -31 74.5 -91.5t7.5 -160.5l-41 -338q-7 -61 17.5 -95t72.5 -34h45q16 0 24 -9t5 -26l-23 -180q-3 -35 -37 -35h-172z" />
    <glyph glyph-name="bar" unicode="|" horiz-adv-x="403" 
d="M35 -164q-32 0 -29 35l203 1651q3 34 37 34h213q33 0 30 -34l-202 -1651q-6 -35 -39 -35h-213z" />
    <glyph glyph-name="braceright" unicode="}" horiz-adv-x="747" 
d="M197 -301h-170q-35 0 -29 35l20 180q6 35 39 35h43q49 0 83 34.5t40 94.5l43 338q23 192 144 252q15 9 2 14q-55 31 -74.5 90.5t-7.5 159.5l39 330q7 59 -17.5 94t-72.5 35h-46q-31 0 -28 34l22 179q3 34 37 34h172q128 0 186.5 -64t43.5 -188l-52 -415q-10 -83 11 -126
t77 -54q32 -3 29 -35l-20 -162q-1 -15 -11.5 -24t-25.5 -11q-58 -11 -90.5 -54.5t-42.5 -127.5l-52 -424q-15 -126 -89 -190t-203 -64z" />
    <glyph glyph-name="asciitilde" unicode="~" horiz-adv-x="1060" 
d="M719 412q-86 0 -168 55q-95 61 -158 61q-78 0 -133 -65q-21 -27 -47 -8l-107 80q-22 19 -8 45q46 88 134 143t182 55q34 0 65 -8.5t49 -18t45 -26.5q7 -4 25 -15t26 -16t23.5 -13t26.5 -12t26 -7t29 -3q62 0 117 66q25 28 49 10l123 -90q28 -18 10 -45
q-50 -85 -134 -136.5t-175 -51.5z" />
    <glyph glyph-name="uni00A0" unicode="&#xa0;" horiz-adv-x="397" 
 />
    <glyph glyph-name="exclamdown" unicode="&#xa1;" horiz-adv-x="688" 
d="M477 1450q79 0 125 -52t37 -126q-9 -72 -71 -124t-134 -52q-70 0 -118.5 52t-41.5 124q9 74 67.5 126t135.5 52zM305 926q3 35 37 35h158q16 0 24.5 -9t5.5 -26l-79 -873q-3 -19 -11.5 -27t-25.5 -8h-213q-33 0 -27 35z" />
    <glyph glyph-name="cent" unicode="&#xa2;" horiz-adv-x="1067" 
d="M750 541l4 10q2 9 15 20.5t28 8.5l204 -33q14 -3 20.5 -13.5t2.5 -25.5q-3 -21 -16 -47q-49 -113 -147 -187t-222 -96q-12 -3 -12 -14l-11 -127q-3 -35 -36 -35h-168q-32 0 -29 35l25 137q0 8 -11 12q-104 29 -173.5 104.5t-94.5 184.5q-20 102 -4 242q19 142 63 237
q50 106 138 180t200 103q13 3 13 12l10 135q6 35 37 35h168q34 0 28 -35l-22 -127q0 -11 10 -14q120 -24 200 -99.5t99 -178.5q8 -33 8 -64q0 -30 -33 -37l-213 -33q-15 -3 -24.5 3.5t-9.5 19.5l-2 29q-8 53 -51 88t-109 35q-64 0 -111.5 -32.5t-72.5 -90.5
q-32 -69 -43 -168q-14 -104 0 -168q11 -61 50.5 -96t102.5 -35t113.5 34t75.5 91z" />
    <glyph glyph-name="sterling" unicode="&#xa3;" horiz-adv-x="1218" 
d="M584 455q-13 -114 -95 -193q-6 -6 -4.5 -10t9.5 -4h620q34 0 31 -35l-23 -178q-3 -35 -37 -35h-907q-31 0 -28 35l22 186q3 24 27 41q48 33 72.5 79.5t33.5 113.5l14 120q0 13 -10 13h-123q-31 0 -28 35l20 163q3 35 37 35h123q12 0 12 13l21 170q26 207 156.5 323.5
t330.5 122.5q166 4 264.5 -78t128.5 -233q9 -35 -28 -41l-199 -37q-30 -6 -39 24q-18 65 -53 92t-90 25q-78 -2 -128 -48.5t-61 -143.5l-22 -176q0 -13 10 -13h350q16 0 24 -9t5 -26l-21 -163q-3 -35 -36 -35h-351q-12 0 -12 -13z" />
    <glyph glyph-name="currency" unicode="&#xa4;" horiz-adv-x="1140" 
d="M1038 623q-15 -115 -75 -209q-6 -13 0 -19l106 -127q21 -25 -6 -49l-145 -115q-29 -23 -50 2l-96 115q-7 7 -16 2q-102 -51 -211 -51q-106 0 -189 47q-11 3 -18 -4l-121 -111q-11 -10 -24 -10t-23 10l-117 115q-23 23 6 49l127 117q9 9 4 18q-43 98 -28 220
q15 112 76 208q6 13 0 19l-105 123q-23 26 6 49l146 117q27 21 47 -2l98 -115q4 -8 16 -2q97 51 209 51q115 0 205 -55q8 -5 19 2l131 119q28 24 47 2l114 -117q24 -24 -4 -49l-145 -133q-7 -7 -4 -17q32 -94 20 -200zM401 623q-9 -85 41.5 -145t132.5 -60q83 0 149 60
t75 145q10 84 -41 144t-131 60q-83 0 -149.5 -59.5t-76.5 -144.5z" />
    <glyph glyph-name="yen" unicode="&#xa5;" horiz-adv-x="1361" 
d="M1346 1434q20 0 25 -12t-7 -29l-420 -695q-8 -14 6 -14h164q34 0 31 -35l-12 -90q-3 -35 -37 -35h-236q-12 0 -12 -12l-12 -96q0 -13 10 -13h235q32 0 29 -34l-12 -93q-3 -34 -37 -34h-236q-4 0 -8 -4t-4 -9l-25 -192q-3 -35 -36 -35h-211q-35 0 -29 35l23 192
q0 13 -11 13h-233q-34 0 -31 34l12 93q3 34 37 34h236q12 0 12 13l12 96q3 12 -10 12h-233q-34 0 -31 35l12 90q3 35 37 35h168q14 0 8 14l-248 695q-8 17 0.5 29t28.5 12h231q25 0 35 -27l178 -533q1 -6 7 -6t10 6l307 533q17 27 43 27h234z" />
    <glyph glyph-name="brokenbar" unicode="&#xa6;" horiz-adv-x="403" 
d="M158 823q-34 0 -31 35l82 664q3 34 37 34h213q33 0 30 -34l-81 -664q-3 -35 -39 -35h-211zM35 -164q-32 0 -29 35l82 664q3 34 37 34h213q35 0 29 -34l-80 -664q-6 -35 -39 -35h-213z" />
    <glyph glyph-name="section" unicode="&#xa7;" horiz-adv-x="987" 
d="M393 -426q-182 0 -274 93.5t-78 252.5l6 66q5 34 37 34h213q15 0 23.5 -7t7.5 -19l-4 -27q-8 -66 23 -105.5t89 -39.5q56 0 97 36t47 91q3 27 -5 49t-21.5 37.5t-44 32.5t-55 28t-71.5 30q-6 2 -9 3.5t-8.5 3.5t-9.5 4q-94 39 -147.5 75.5t-83.5 94.5q-40 82 -29 187
q14 111 84 202q49 61 133 99q18 7 4 14q-72 41 -111 114.5t-28 172.5q19 149 148.5 251.5t308.5 102.5q175 0 275.5 -99.5t80.5 -258.5l-4 -37q-3 -35 -37 -35h-213q-17 0 -24.5 5.5t-5.5 14.5l2 21q7 63 -24 102t-87 39q-54 0 -95 -37t-48 -94q-4 -36 8.5 -63.5t44.5 -49
t61.5 -35t81.5 -32.5q50 -17 84.5 -31.5t77 -42t68.5 -61.5q74 -84 57 -226q-15 -106 -80 -196q-66 -89 -141 -109q-6 -2 -7 -5.5t5 -6.5q164 -108 141 -291q-20 -159 -150.5 -253.5t-312.5 -94.5zM500 373q74 0 121 53q28 36 34 86q6 52 -16 88q-30 51 -104 51
q-78 0 -123 -61q-27 -35 -33 -82q-6 -49 14 -82q32 -53 107 -53z" />
    <glyph glyph-name="dieresis" unicode="&#xa8;" horiz-adv-x="737" 
d="M283 1169q-62 0 -96 40t-27 104t51.5 104.5t105.5 40.5q63 0 97 -40t26 -105q-9 -65 -51.5 -104.5t-105.5 -39.5zM664 1169q-63 0 -97 39.5t-26 104.5t51.5 105t107.5 40q61 0 95 -40t26 -105t-51 -104.5t-106 -39.5z" />
    <glyph glyph-name="copyright" unicode="&#xa9;" horiz-adv-x="1622" 
d="M768 -16q-203 0 -355.5 95.5t-224 264.5t-45.5 379q24 205 137 371.5t289 261t379 94.5q205 0 358.5 -94.5t225.5 -261t47 -371.5q-26 -210 -139.5 -379t-290 -264.5t-381.5 -95.5zM788 143q243 0 421.5 164t209.5 416q20 161 -35.5 290.5t-174.5 203t-279 73.5
q-243 0 -421.5 -161t-209.5 -406q-20 -166 35.5 -298.5t174.5 -207t279 -74.5zM819 356q-110 0 -169.5 65t-47.5 171l33 256q12 107 86.5 170t185.5 63t169 -59.5t46 -161.5q0 -14 -35 -14l-81 -2q-33 0 -33 6v8q6 43 -16.5 68.5t-65.5 25.5t-71 -25.5t-34 -68.5l-34 -278
q-5 -42 17.5 -67.5t66.5 -25.5q41 0 69.5 25.5t34.5 67.5q0 8 10 13t25 5l82 -2q33 0 33 -10l-3 -8q-12 -99 -86 -160.5t-182 -61.5z" />
    <glyph glyph-name="ordfeminine" unicode="&#xaa;" horiz-adv-x="655" 
d="M408 1161h124q13 0 13 13l4 20q6 53 -24.5 87t-88.5 34q-39 0 -72.5 -16.5t-48.5 -41.5q-18 -31 -41 -28l-84 8q-38 3 -26 37q24 76 104 126t183 50q122 0 192.5 -66t58.5 -165l-55 -439q-3 -35 -37 -35h-84q-33 0 -30 31l2 8q2 8 -2.5 10.5t-10.5 -3.5q-64 -58 -176 -58
q-108 0 -164.5 52t-44.5 147q12 104 95.5 166.5t212.5 62.5zM352 858q66 0 115 37t55 86l6 47q0 12 -12 12h-102q-145 0 -156 -94q-6 -44 19.5 -66t74.5 -22zM59 602q6 35 39 35h514q34 0 31 -35l-12 -90q-3 -35 -37 -35h-516q-32 0 -29 35z" />
    <glyph glyph-name="guillemotleft" unicode="&#xab;" horiz-adv-x="1011" 
d="M526 260q9 -17 1.5 -29t-27.5 -12h-176q-28 0 -37 23l-144 309q-12 24 7 49l219 309q14 23 41 23h178q19 0 23.5 -12t-7.5 -29l-219 -307q-5 -8 -2 -17zM868 260q8 -17 0.5 -29t-26.5 -12h-176q-28 0 -39 23l-142 309q-12 24 7 49l217 309q17 23 43 23h178q19 0 23.5 -12
t-7.5 -29l-219 -307q-5 -8 -2 -17z" />
    <glyph glyph-name="logicalnot" unicode="&#xac;" horiz-adv-x="964" 
d="M104 705q3 34 39 34h783q31 0 28 -34l-49 -408q-6 -35 -39 -35h-172q-33 0 -30 35l22 182q2 5 -1 9t-9 4h-563q-34 0 -31 34z" />
    <glyph glyph-name="uni00AD" unicode="&#xad;" horiz-adv-x="813" 
d="M111 481q-35 0 -29 35l20 178q6 35 39 35h629q34 0 31 -35l-23 -178q-3 -35 -37 -35h-630z" />
    <glyph glyph-name="registered" unicode="&#xae;" horiz-adv-x="884" 
d="M580 1454q173 0 275.5 -116t80.5 -289q-23 -181 -154 -300.5t-303 -119.5q-174 0 -274.5 119.5t-77.5 300.5q22 173 151.5 289t301.5 116zM492 741q127 0 221.5 87.5t109.5 220.5q15 125 -58.5 209.5t-199.5 84.5q-124 0 -218 -84.5t-109 -209.5q-15 -133 57 -220.5
t197 -87.5zM680 1114q-9 -66 -57 -94q-12 -6 -9 -16l25 -107q3 -17 -6.5 -29t-26.5 -12h-28q-32 0 -35 29l-21 104q0 10 -12 10t-12 -12l-13 -96q-6 -35 -39 -35h-22q-34 0 -31 35l39 309q3 35 37 35h109q53 0 80.5 -34.5t21.5 -86.5zM528 1153q-12 0 -12 -12l-8 -58
q0 -12 10 -12h25q18 0 30.5 11.5t14.5 29.5q3 41 -35 41h-25z" />
    <glyph glyph-name="macron" unicode="&#xaf;" horiz-adv-x="583" 
d="M139 1184q-34 0 -28 35l14 124q3 35 39 35h516q35 0 29 -35l-15 -124q-6 -35 -39 -35h-516z" />
    <glyph glyph-name="degree" unicode="&#xb0;" horiz-adv-x="747" 
d="M453 965q-140 0 -226 100t-67 246q17 144 127 244t250 100q141 0 226 -99.5t66 -244.5q-17 -146 -126 -246t-250 -100zM475 1153q64 0 113 46t57 112q9 67 -28.5 112t-102.5 45q-64 0 -114.5 -45t-57.5 -112q-7 -66 31.5 -112t101.5 -46z" />
    <glyph glyph-name="plusminus" unicode="&#xb1;" horiz-adv-x="964" 
d="M678 946q0 -12 10 -12h260q34 0 31 -35l-23 -178q-3 -35 -36 -35h-263q-4 0 -8 -3.5t-4 -8.5l-33 -264q-3 -35 -39 -35h-170q-34 0 -28 35l33 264q0 12 -13 12h-260q-32 0 -29 35l23 178q3 35 37 35h260q11 0 14 12l33 271q3 34 39 34h170q35 0 29 -34zM51 0
q-34 0 -28 35l20 178q6 35 39 35h782q34 0 31 -35l-23 -178q-3 -35 -38 -35h-783z" />
    <glyph glyph-name="uni00B2" unicode="&#xb2;" horiz-adv-x="681" 
d="M160 852q-16 0 -24 9t-5 26l12 98q3 23 23 43q142 128 283 266q126 119 131 176q5 40 -19.5 66.5t-68.5 26.5q-45 0 -76.5 -26.5t-36.5 -68.5l-2 -10q-3 -35 -37 -35h-115q-33 0 -30 35l6 39q20 102 106.5 163.5t204.5 61.5q127 0 195.5 -71.5t56.5 -175.5
q-14 -97 -125 -218q-66 -74 -238 -231q-4 -4 -2.5 -9t7.5 -5h280q34 0 31 -35l-12 -90q-3 -35 -37 -35h-508z" />
    <glyph glyph-name="uni00B3" unicode="&#xb3;" horiz-adv-x="643" 
d="M694 1270q16 -68 6 -137q-8 -75 -41 -136q-38 -72 -111.5 -114.5t-162.5 -42.5q-92 0 -155 47.5t-85 128.5q-11 38 -8 84q0 35 37 35h115q14 0 22 -9t8 -24q0 -24 7 -41q13 -60 80 -60q53 0 83 46q24 34 31 90q9 60 -8 98q-18 47 -74 47q-20 0 -43 -10q-34 -15 -47 6
l-45 68q-19 25 8 49l185 141q7 6 5.5 10t-9.5 4h-250q-35 0 -29 35l10 90q6 35 39 35h467q32 0 29 -35l-13 -98q-3 -24 -22 -43l-158 -129q-13 -13 6 -16q87 -21 123 -119z" />
    <glyph glyph-name="acute" unicode="&#xb4;" horiz-adv-x="485" 
d="M188 1176q-20 0 -25 11t7 30l119 186q15 24 43 24h200q21 0 26 -13t-9 -30l-150 -186q-19 -22 -45 -22h-166z" />
    <glyph glyph-name="uni00B5" unicode="&#xb5;" horiz-adv-x="1093" 
d="M795 1018q3 35 36 35h213q34 0 31 -35l-121 -983q-6 -35 -39 -35h-213q-31 0 -28 35l6 55q1 7 -3 8.5t-9 -4.5q-92 -108 -258 -108q-20 0 -56 4q-10 3 -14 -13l-43 -352q-3 -35 -37 -35h-213q-35 0 -29 35l170 1393q3 35 39 35h211q34 0 31 -35l-74 -602q-11 -83 26 -134
t111 -51q68 0 117.5 41.5t67.5 110.5z" />
    <glyph glyph-name="paragraph" unicode="&#xb6;" horiz-adv-x="1241" 
d="M678 1434h557q35 0 29 -35l-217 -1774q-3 -35 -39 -35h-136q-33 0 -30 35l196 1592q0 12 -12 12h-188q-13 0 -13 -12l-196 -1592q-3 -35 -37 -35h-139q-34 0 -31 35l108 877q0 12 -10 12q-198 17 -306 142t-85 317q25 203 174.5 332t374.5 129z" />
    <glyph glyph-name="periodcentered" unicode="&#xb7;" horiz-adv-x="364" 
d="M127 -8q-78 0 -123.5 51.5t-36.5 126.5q9 72 70.5 124t132.5 52q72 0 121.5 -52t40.5 -124q-8 -74 -67.5 -126t-137.5 -52z" />
    <glyph glyph-name="cedilla" unicode="&#xb8;" horiz-adv-x="335" 
d="M-57 -375q-29 9 -19 41l19 82q12 34 45 25q34 -8 61 2.5t37 40.5q23 61 -59 143q-16 15 -11.5 28t27.5 13h102q24 0 41 -14q122 -119 72 -250q-21 -54 -61.5 -86t-87.5 -39t-89 -3t-77 17z" />
    <glyph glyph-name="uni00B9" unicode="&#xb9;" horiz-adv-x="385" 
d="M293 1704q19 8 43 8h125q34 0 28 -35l-96 -790q-3 -35 -39 -35h-112q-35 0 -29 35l80 649q0 12 -12 12l-39 -4q-36 -3 -33 33l8 70q6 28 31 39z" />
    <glyph glyph-name="ordmasculine" unicode="&#xba;" horiz-adv-x="706" 
d="M408 741q-99 0 -166 52t-90 147q-18 67 -7 158q12 98 43 157q44 94 124.5 144.5t183.5 50.5q92 0 158 -50.5t89 -142.5q18 -83 9 -157q-10 -85 -50 -160q-44 -94 -122.5 -146.5t-171.5 -52.5zM426 899q72 0 115 84q21 50 28 115q11 69 0 110q-10 41 -36 63.5t-62 22.5
q-72 0 -117 -86q-22 -45 -28 -110q-8 -77 2 -115q7 -41 33 -62.5t65 -21.5zM104 475q-33 0 -30 35l12 94q3 35 39 35h543q33 0 30 -35l-12 -94q-3 -35 -37 -35h-545z" />
    <glyph glyph-name="guillemotright" unicode="&#xbb;" horiz-adv-x="1011" 
d="M156 219q-19 0 -24 12t7 29l219 307q5 8 2 17l-143 307q-9 17 -1 29t28 12h176q26 0 37 -23l143 -309q12 -25 -6 -49l-219 -309q-17 -23 -41 -23h-178zM498 219q-20 0 -24.5 12t7.5 29l219 307q6 9 0 17l-141 307q-9 17 -1 29t28 12h176q26 0 37 -23l143 -309
q12 -25 -6 -49l-219 -309q-17 -23 -43 -23h-176z" />
    <glyph glyph-name="onequarter" unicode="&#xbc;" horiz-adv-x="1632" 
d="M358 608q-3 -35 -36 -35h-115q-32 0 -29 35l80 649q0 13 -10 13l-41 -4q-37 -3 -31 32l8 70q3 27 31 39l43 18q21 9 43 9h125q34 0 31 -35zM1126 1409q19 25 43 25h129q20 0 25.5 -12t-6.5 -29l-942 -1368q-19 -25 -43 -25h-129q-20 0 -25.5 12t6.5 29zM1552 383
q34 0 31 -35l-12 -98q-6 -35 -39 -35h-23q-14 0 -14 -12l-20 -168q-3 -35 -39 -35h-113q-35 0 -29 35l21 168q0 12 -10 12h-347q-33 0 -30 35l10 78q2 20 14 43l256 463q16 26 43 26h117q20 0 26 -12t-3 -29l-230 -422q-8 -14 8 -14h156q12 0 12 12l15 121q6 35 39 35h112
q34 0 31 -35l-16 -121q0 -12 12 -12h22z" />
    <glyph glyph-name="onehalf" unicode="&#xbd;" horiz-adv-x="1583" 
d="M358 608q-3 -35 -36 -35h-115q-32 0 -29 35l80 649q0 13 -10 13l-41 -4q-37 -3 -31 32l8 70q3 27 31 39l43 18q21 9 43 9h125q34 0 31 -35zM1126 1409q19 25 43 25h129q20 0 25.5 -12t-6.5 -29l-942 -1368q-19 -25 -43 -25h-129q-20 0 -25.5 12t6.5 29zM1200 174
q-4 -3 -5 -6.5t1.5 -5.5t7.5 -2h279q33 0 30 -35l-12 -90q-3 -35 -37 -35h-506q-33 0 -30 35l12 98q2 19 23 43q72 64 284 266q124 120 129 176q6 40 -18.5 66.5t-69.5 26.5t-75.5 -26.5t-36.5 -68.5v-10q-6 -35 -39 -35h-115q-34 0 -31 35l6 39q20 102 107 163.5t205 61.5
q127 0 195.5 -71.5t56.5 -175.5q-10 -93 -125 -217q-18 -21 -38 -42.5t-48.5 -49t-44 -42t-54.5 -51t-51 -47.5z" />
    <glyph glyph-name="threequarters" unicode="&#xbe;" horiz-adv-x="1814" 
d="M625 725q-39 -73 -111.5 -115.5t-161.5 -42.5q-92 0 -155.5 47.5t-85.5 128.5q-10 35 -7 84q0 17 9.5 26t25.5 9h115q31 0 31 -33q4 -29 6 -41q16 -59 80 -59q53 0 86 45q24 37 30 90q8 58 -10 99q-18 47 -74 47q-14 0 -43 -11q-32 -16 -47 7l-45 67q-18 24 11 49
l184 142q6 6 5 10t-9 4h-250q-34 0 -31 35l12 90q3 35 37 35h467q34 0 31 -35l-12 -98q-3 -23 -23 -43l-158 -129q-14 -14 3 -17q93 -22 127 -119q15 -60 6 -137q-8 -69 -43 -135zM1307 1409q19 25 43 25h129q20 0 25.5 -12t-7.5 -29l-942 -1368q-19 -25 -43 -25h-129
q-19 0 -24.5 12t6.5 29zM1733 383q33 0 30 -35l-12 -98q-3 -35 -39 -35h-22q-12 0 -15 -12l-20 -168q-3 -35 -37 -35h-115q-31 0 -28 35l20 168q0 12 -10 12h-346q-35 0 -29 35l8 78q2 17 15 43l258 463q13 26 43 26h116q19 0 24.5 -12t-3.5 -29l-230 -422q-6 -14 9 -14h155
q13 0 13 12l16 121q3 35 37 35h115q31 0 28 -35l-14 -121q-3 -12 10 -12h23z" />
    <glyph glyph-name="questiondown" unicode="&#xbf;" horiz-adv-x="1034" 
d="M627 1028q70 0 113.5 -48t35.5 -116q-9 -68 -65.5 -116t-126.5 -48q-67 0 -112 48.5t-36 115.5q7 67 64.5 115.5t126.5 48.5zM688 569q35 0 29 -34l-6 -56q-10 -79 -53.5 -140.5t-100 -101t-112.5 -75t-97.5 -81.5t-48.5 -101q-7 -66 35.5 -106t120.5 -40q84 0 139 43
t63 111l5 22q3 33 36 33l211 -8q15 0 24 -7t7 -18l-2 -22q-23 -186 -167.5 -302t-354.5 -116q-205 0 -314.5 109t-87.5 290q8 69 34.5 126t62.5 95.5t78 70.5t83 58t75.5 51.5t58 58t28.5 69.5l4 37q6 34 39 34h211z" />
    <glyph glyph-name="Agrave" unicode="&#xc0;" horiz-adv-x="1333" 
d="M924 1597q6 -19 -2 -30t-27 -11h-168q-24 0 -37 23l-104 186q-10 17 -2.5 30t28.5 13h201q29 0 35 -24zM975 0q-30 0 -33 29l-33 190q-3 10 -10 10h-487q-10 0 -13 -10l-80 -190q-13 -29 -40 -29h-232q-17 0 -23.5 11t1.5 28l591 1366q13 29 41 29h291q29 0 35 -29
l256 -1366q3 -17 -6.5 -28t-26.5 -11h-231zM498 467q-3 -14 8 -14h352q12 0 12 14l-102 625q-1 5 -3.5 6.5t-6 0t-6.5 -6.5z" />
    <glyph glyph-name="Aacute" unicode="&#xc1;" horiz-adv-x="1333" 
d="M1063 1808q20 0 25 -13t-9 -30l-149 -186q-20 -23 -45 -23h-168q-19 0 -24 11t5 30l121 187q15 24 43 24h201zM975 0q-30 0 -33 29l-33 190q-3 10 -10 10h-487q-10 0 -13 -10l-80 -190q-13 -29 -40 -29h-232q-17 0 -23.5 11t1.5 28l591 1366q13 29 41 29h291q29 0 35 -29
l256 -1366q3 -17 -6.5 -28t-26.5 -11h-231zM498 467q-3 -14 8 -14h352q12 0 12 14l-102 625q-1 5 -3.5 6.5t-6 0t-6.5 -6.5z" />
    <glyph glyph-name="Acircumflex" unicode="&#xc2;" horiz-adv-x="1333" 
d="M840 1690q-3 6 -8.5 6t-8.5 -6l-88 -117q-20 -23 -43 -23h-145q-22 0 -27.5 13t8.5 30l164 199q17 20 45 20h215q28 0 39 -20l119 -199q9 -17 0.5 -30t-29.5 -13h-145q-24 0 -37 23zM975 0q-30 0 -33 29l-33 190q-3 10 -10 10h-487q-10 0 -13 -10l-80 -190
q-13 -29 -40 -29h-232q-17 0 -23.5 11t1.5 28l591 1366q13 29 41 29h291q29 0 35 -29l256 -1366q3 -17 -6.5 -28t-26.5 -11h-231zM498 467q-3 -14 8 -14h352q12 0 12 14l-102 625q-1 5 -3.5 6.5t-6 0t-6.5 -6.5z" />
    <glyph glyph-name="Atilde" unicode="&#xc3;" horiz-adv-x="1333" 
d="M752 1640q-44 0 -78 -34q-26 -29 -47 -11l-64 50q-24 20 -6 47q36 67 88 101t111 34q34 0 61 -12t62 -35q58 -37 90 -37q42 0 71 37q24 28 47 10l66 -49q23 -20 6 -49q-44 -67 -100 -101.5t-109 -34.5q-55 0 -125 52q-42 32 -73 32zM975 0q-30 0 -33 29l-33 190
q-3 10 -10 10h-487q-10 0 -13 -10l-80 -190q-13 -29 -40 -29h-232q-17 0 -23.5 11t1.5 28l591 1366q13 29 41 29h291q29 0 35 -29l256 -1366q3 -17 -6.5 -28t-26.5 -11h-231zM498 467q-3 -14 8 -14h352q12 0 12 14l-102 625q-1 5 -3.5 6.5t-6 0t-6.5 -6.5z" />
    <glyph glyph-name="Adieresis" unicode="&#xc4;" horiz-adv-x="1333" 
d="M623 1550q-61 0 -95.5 40t-27.5 104t52 104.5t107 40.5q61 0 95 -40t26 -105t-51 -104.5t-106 -39.5zM1006 1550q-64 0 -98.5 39.5t-26.5 104.5q9 65 52 105t107 40q63 0 96 -40t25 -105q-7 -64 -50 -104t-105 -40zM975 0q-30 0 -33 29l-33 190q-3 10 -10 10h-487
q-10 0 -13 -10l-80 -190q-13 -29 -40 -29h-232q-17 0 -23.5 11t1.5 28l591 1366q13 29 41 29h291q29 0 35 -29l256 -1366q3 -17 -6.5 -28t-26.5 -11h-231zM498 467q-3 -14 8 -14h352q12 0 12 14l-102 625q-1 5 -3.5 6.5t-6 0t-6.5 -6.5z" />
    <glyph glyph-name="Aring" unicode="&#xc5;" horiz-adv-x="1333" 
d="M811 1528q-93 0 -149.5 65.5t-45.5 161.5q12 95 84 161t166 66t150.5 -66t44.5 -161q-10 -95 -83.5 -161t-166.5 -66zM852 1853q-40 0 -71.5 -28t-37.5 -70q-5 -40 19.5 -68t64.5 -28q38 0 69.5 28t35.5 68q6 42 -17.5 70t-62.5 28zM975 0q-30 0 -33 29l-33 190
q-3 10 -10 10h-487q-10 0 -13 -10l-80 -190q-13 -29 -40 -29h-232q-17 0 -23.5 11t1.5 28l591 1366q13 29 41 29h291q29 0 35 -29l256 -1366q3 -17 -6.5 -28t-26.5 -11h-231zM498 467q-3 -14 8 -14h352q12 0 12 14l-102 625q-1 5 -3.5 6.5t-6 0t-6.5 -6.5z" />
    <glyph glyph-name="AE" unicode="&#xc6;" horiz-adv-x="1906" 
d="M1942 1221q-3 -35 -37 -35h-621q-11 0 -14 -12l-37 -314q-3 -12 10 -12h397q32 0 29 -35l-22 -178q-3 -35 -37 -35h-398q-11 0 -14 -12l-39 -328q-2 -5 1 -8.5t9 -3.5h619q34 0 31 -35l-23 -178q-3 -35 -39 -35h-876q-34 0 -31 35l22 182q2 5 -1 8.5t-9 3.5h-399
q-11 0 -14 -8l-117 -196q-16 -25 -43 -25h-236q-19 0 -24.5 12t4.5 29l839 1368q14 25 43 25h1018q34 0 31 -35zM598 467q-8 -14 6 -14h287q4 0 8 3.5t4 8.5l76 608q0 9 -4.5 10.5t-9.5 -6.5z" />
    <glyph glyph-name="Ccedilla" unicode="&#xc7;" horiz-adv-x="1208" 
d="M1204 967q-3 -10 -35 -13l-213 -14q-11 -1 -19.5 0.5t-12 4t-2.5 5.5l2 13q12 107 -44.5 173t-162.5 66t-179 -66t-85 -173l-62 -494q-12 -107 44.5 -172.5t162.5 -65.5q105 0 177.5 66t86.5 172q4 26 37 23l211 -11q33 -3 33 -10l-2 -10q-23 -195 -159 -323t-339 -150
q-19 -4 -6 -17q90 -106 45 -221q-21 -54 -61 -86t-87 -38.5t-89 -2.5t-78 17q-25 9 -19 41l21 81q9 34 43 25q34 -8 61 2.5t39 40.5q24 73 -86 166q-1 1 -3 2l-4 2t-5 2q-162 42 -243 169t-58 310l57 473q28 224 186.5 360t391.5 136q232 0 357 -129.5t99 -343.5v-10z" />
    <glyph glyph-name="Egrave" unicode="&#xc8;" horiz-adv-x="1159" 
d="M860 1622q7 -19 -1 -30t-28 -11h-165q-24 0 -37 23l-105 186q-11 17 -3.5 30t28.5 13h201q27 0 36 -25zM1196 1221q-3 -35 -37 -35h-641q-4 0 -8 -3.5t-4 -8.5l-39 -314q0 -12 10 -12h416q35 0 29 -35l-21 -178q-6 -35 -39 -35h-416q-12 0 -12 -12l-41 -328q0 -12 10 -12
h641q32 0 29 -35l-22 -178q-3 -35 -37 -35h-899q-32 0 -29 35l168 1364q3 35 37 35h899q32 0 29 -35z" />
    <glyph glyph-name="Eacute" unicode="&#xc9;" horiz-adv-x="1159" 
d="M999 1833q21 0 26 -13t-9 -30l-150 -186q-20 -23 -45 -23h-166q-20 0 -25 11t7 30l119 186q16 25 43 25h200zM1196 1221q-3 -35 -37 -35h-641q-4 0 -8 -3.5t-4 -8.5l-39 -314q0 -12 10 -12h416q35 0 29 -35l-21 -178q-6 -35 -39 -35h-416q-12 0 -12 -12l-41 -328
q0 -12 10 -12h641q32 0 29 -35l-22 -178q-3 -35 -37 -35h-899q-32 0 -29 35l168 1364q3 35 37 35h899q32 0 29 -35z" />
    <glyph glyph-name="Ecircumflex" unicode="&#xca;" horiz-adv-x="1159" 
d="M776 1714q-2 6 -7 6t-9 -6l-86 -117q-19 -22 -43 -22h-148q-21 0 -25.5 13t9.5 30l164 199q14 20 43 20h215q28 0 39 -20l119 -199q11 -17 3 -30t-30 -13h-148q-23 0 -36 22zM1196 1221q-3 -35 -37 -35h-641q-4 0 -8 -3.5t-4 -8.5l-39 -314q0 -12 10 -12h416q35 0 29 -35
l-21 -178q-6 -35 -39 -35h-416q-12 0 -12 -12l-41 -328q0 -12 10 -12h641q32 0 29 -35l-22 -178q-3 -35 -37 -35h-899q-32 0 -29 35l168 1364q3 35 37 35h899q32 0 29 -35z" />
    <glyph glyph-name="Edieresis" unicode="&#xcb;" horiz-adv-x="1159" 
d="M561 1575q-62 0 -97 39.5t-26 103.5q7 64 51.5 105t106.5 41q63 0 96.5 -40.5t24.5 -105.5q-8 -65 -50.5 -104t-105.5 -39zM942 1575q-64 0 -97.5 39t-25.5 104t51.5 105.5t106.5 40.5t97 -40.5t26 -105.5q-9 -65 -52 -104t-106 -39zM1196 1221q-3 -35 -37 -35h-641
q-4 0 -8 -3.5t-4 -8.5l-39 -314q0 -12 10 -12h416q35 0 29 -35l-21 -178q-6 -35 -39 -35h-416q-12 0 -12 -12l-41 -328q0 -12 10 -12h641q32 0 29 -35l-22 -178q-3 -35 -37 -35h-899q-32 0 -29 35l168 1364q3 35 37 35h899q32 0 29 -35z" />
    <glyph glyph-name="Igrave" unicode="&#xcc;" horiz-adv-x="522" 
d="M524 1622q7 -19 -0.5 -30t-27.5 -11h-166q-24 0 -37 23l-105 186q-11 17 -3.5 30t28.5 13h201q28 0 37 -25zM115 0q-32 0 -29 35l168 1364q3 35 37 35h213q34 0 28 -35l-165 -1364q-6 -35 -39 -35h-213z" />
    <glyph glyph-name="Iacute" unicode="&#xcd;" horiz-adv-x="522" 
d="M319 1581q-20 0 -25 11t7 30l119 186q16 25 43 25h201q21 0 25.5 -13t-9.5 -30l-150 -186q-20 -23 -45 -23h-166zM115 0q-32 0 -29 35l168 1364q3 35 37 35h213q34 0 28 -35l-165 -1364q-6 -35 -39 -35h-213z" />
    <glyph glyph-name="Icircumflex" unicode="&#xce;" horiz-adv-x="522" 
d="M147 1575q-20 0 -25 13t9 30l164 199q17 20 43 20h215q28 0 39 -20l119 -199q11 -17 3 -30t-30 -13h-147q-24 0 -37 22l-60 117q-2 6 -6.5 6t-7.5 -6l-88 -117q-19 -22 -43 -22h-148zM115 0q-32 0 -29 35l168 1364q3 35 37 35h213q34 0 28 -35l-165 -1364q-6 -35 -39 -35
h-213z" />
    <glyph glyph-name="Idieresis" unicode="&#xcf;" horiz-adv-x="522" 
d="M225 1575q-62 0 -96 39.5t-27 103.5t51.5 105t106.5 41q63 0 96.5 -40.5t24.5 -105.5q-8 -65 -50.5 -104t-105.5 -39zM606 1575q-64 0 -97.5 39t-25.5 104t51.5 105.5t106.5 40.5t97 -40.5t26 -105.5q-7 -64 -51 -103.5t-107 -39.5zM115 0q-32 0 -29 35l168 1364
q3 35 37 35h213q34 0 28 -35l-165 -1364q-6 -35 -39 -35h-213z" />
    <glyph glyph-name="Eth" unicode="&#xd0;" horiz-adv-x="1329" 
d="M879 1434q226 0 347.5 -119t96.5 -316l-70 -565q-25 -197 -175 -315.5t-376 -118.5h-485q-34 0 -31 35l74 594q0 12 -10 12h-55q-34 0 -31 35l16 127q3 35 37 35h57q13 0 13 12l67 549q3 35 39 35h486zM979 481l57 471q14 106 -35.5 170t-144.5 64h-235q-12 0 -15 -12
l-39 -324q0 -12 11 -12h147q16 0 24 -9t5 -26l-15 -127q-6 -35 -39 -35h-147q-12 0 -12 -12l-45 -369q-2 -5 1 -8.5t9 -3.5h237q93 0 158 64t78 169z" />
    <glyph glyph-name="Ntilde" unicode="&#xd1;" horiz-adv-x="1306" 
d="M930 1583q-56 0 -125 51q-44 33 -74 33q-43 0 -78 -35q-26 -29 -47 -10l-63 49q-24 20 -6 47q36 67 87 101t109 34q36 0 63 -11.5t62 -35.5q58 -37 90 -37q43 0 72 37q25 28 47 11l66 -50q24 -21 -5 -63q-44 -60 -96.5 -90.5t-101.5 -30.5zM115 0q-32 0 -29 35l168 1364
q3 35 37 35h205q24 0 36 -23l394 -852q3 -8 8 -6.5t6 10.5l102 836q3 35 37 35h209q34 0 31 -35l-168 -1364q-6 -35 -39 -35h-203q-25 0 -37 25l-393 860q-3 8 -8 6.5t-6 -10.5l-100 -846q-6 -35 -39 -35h-211z" />
    <glyph glyph-name="Ograve" unicode="&#xd2;" horiz-adv-x="1232" 
d="M877 1614q7 -19 -1 -30t-28 -11h-166q-24 0 -37 22l-104 187q-9 17 -2.5 30t26.5 13h201q28 0 37 -25zM573 -23q-235 0 -361 144t-97 377l53 438q29 231 190.5 372.5t395.5 141.5q236 0 362.5 -142t97.5 -372l-53 -438q-28 -233 -190 -377t-398 -144zM604 225
q110 0 186 72t91 190l55 451q13 120 -45 192t-168 72q-108 0 -183.5 -72.5t-90.5 -191.5l-56 -451q-13 -118 44.5 -190t166.5 -72z" />
    <glyph glyph-name="Oacute" unicode="&#xd3;" horiz-adv-x="1232" 
d="M672 1573q-42 0 -19 41l121 186q12 25 41 25h201q22 0 27 -13t-9 -30l-151 -187q-16 -22 -43 -22h-168zM573 -23q-235 0 -361 144t-97 377l53 438q29 231 190.5 372.5t395.5 141.5q236 0 362.5 -142t97.5 -372l-53 -438q-28 -233 -190 -377t-398 -144zM604 225
q110 0 186 72t91 190l55 451q13 120 -45 192t-168 72q-108 0 -183.5 -72.5t-90.5 -191.5l-56 -451q-13 -118 44.5 -190t166.5 -72z" />
    <glyph glyph-name="Ocircumflex" unicode="&#xd4;" horiz-adv-x="1232" 
d="M500 1567q-20 0 -25 13t8 30l164 198q18 21 45 21h213q30 0 39 -21l119 -198q11 -17 3 -30t-30 -13h-147q-24 0 -37 22l-59 117q-1 6 -6.5 6t-8.5 -6l-88 -117q-19 -22 -43 -22h-147zM573 -23q-235 0 -361 144t-97 377l53 438q29 231 190.5 372.5t395.5 141.5
q236 0 362.5 -142t97.5 -372l-53 -438q-28 -233 -190 -377t-398 -144zM604 225q110 0 186 72t91 190l55 451q13 120 -45 192t-168 72q-108 0 -183.5 -72.5t-90.5 -191.5l-56 -451q-13 -118 44.5 -190t166.5 -72z" />
    <glyph glyph-name="Otilde" unicode="&#xd5;" horiz-adv-x="1232" 
d="M905 1573q-26 0 -52 9t-38.5 17.5t-34.5 24.5q-44 33 -73 33q-46 0 -78 -35q-26 -29 -47 -10l-64 49q-23 20 -8 47q37 67 89 101t110 34q56 0 122 -47q62 -37 93 -37q39 0 71 37q24 28 47 10l66 -49q24 -20 -6 -63q-42 -60 -95 -90.5t-102 -30.5zM573 -23
q-235 0 -361 144t-97 377l53 438q29 231 190.5 372.5t395.5 141.5q236 0 362.5 -142t97.5 -372l-53 -438q-28 -233 -190 -377t-398 -144zM604 225q110 0 186 72t91 190l55 451q13 120 -45 192t-168 72q-108 0 -183.5 -72.5t-90.5 -191.5l-56 -451q-13 -118 44.5 -190
t166.5 -72z" />
    <glyph glyph-name="Odieresis" unicode="&#xd6;" horiz-adv-x="1232" 
d="M578 1567q-62 0 -96 39.5t-27 103.5t51.5 104.5t105.5 40.5q63 0 97 -40t26 -105q-9 -65 -51.5 -104t-105.5 -39zM958 1567q-63 0 -96.5 39t-25.5 104t51.5 105t107.5 40q61 0 95 -40t26 -105q-7 -64 -51 -103.5t-107 -39.5zM573 -23q-235 0 -361 144t-97 377l53 438
q29 231 190.5 372.5t395.5 141.5q236 0 362.5 -142t97.5 -372l-53 -438q-28 -233 -190 -377t-398 -144zM604 225q110 0 186 72t91 190l55 451q13 120 -45 192t-168 72q-108 0 -183.5 -72.5t-90.5 -191.5l-56 -451q-13 -118 44.5 -190t166.5 -72z" />
    <glyph glyph-name="multiply" unicode="&#xd7;" horiz-adv-x="886" 
d="M874 891q21 -25 -6 -49l-209 -191q-3 -3 -3.5 -8t1.5 -8l160 -189q21 -25 -6 -49l-135 -123q-29 -23 -49 0l-158 187q-1 3 -6 3t-8 -3l-209 -191q-28 -25 -47 0l-109 127q-21 25 6 49l209 191q3 3 3.5 8t-1.5 8l-162 191q-20 22 7 49l135 125q11 12 24 12t23 -12
l164 -193q2 -3 6.5 -3t7.5 3l209 191q26 24 47 0z" />
    <glyph glyph-name="Oslash" unicode="&#xd8;" horiz-adv-x="1243" 
d="M1110 1339q-4 -12 2 -16q141 -141 111 -387l-54 -438q-29 -234 -190 -377.5t-397 -143.5q-143 0 -256 58q-8 8 -17 -4l-49 -82q-14 -25 -43 -25h-92q-19 0 -25 12t4 29l101 160q3 10 -2 18q-107 139 -80 355l53 438q29 231 190.5 372.5t395.5 141.5q127 0 215 -39
q11 -4 18 6l43 74q16 25 43 25h93q20 0 25.5 -12t-5.5 -29zM401 487q0 -8 -2 -12q0 -9 5.5 -11t11.5 7l422 694q4 5 3.5 9t-5.5 6q-49 22 -105 22q-109 0 -184 -72t-90 -192zM889 487l55 451q5 45 -2 96q-2 8 -6.5 8.5t-9.5 -6.5l-459 -747q-7 -11 2 -17q56 -47 143 -47
q109 0 185.5 72t91.5 190z" />
    <glyph glyph-name="Ugrave" unicode="&#xd9;" horiz-adv-x="1249" 
d="M889 1624q6 -19 -2 -30t-27 -11h-168q-24 0 -37 23l-104 186q-9 17 -1.5 30t28.5 13h200q28 0 37 -25zM584 -16q-230 0 -355.5 135t-99.5 356l115 924q3 35 37 35h213q33 0 30 -35l-114 -926q-14 -108 42.5 -175t161.5 -67t178 67t87 175l112 926q6 35 39 35h213
q35 0 29 -35l-113 -924q-28 -221 -185.5 -356t-389.5 -135z" />
    <glyph glyph-name="Uacute" unicode="&#xda;" horiz-adv-x="1249" 
d="M684 1583q-20 0 -25.5 11t5.5 30l120 186q16 25 43 25h201q20 0 25 -13t-9 -30l-149 -186q-20 -23 -45 -23h-166zM584 -16q-230 0 -355.5 135t-99.5 356l115 924q3 35 37 35h213q33 0 30 -35l-114 -926q-14 -108 42.5 -175t161.5 -67t178 67t87 175l112 926q6 35 39 35
h213q35 0 29 -35l-113 -924q-28 -221 -185.5 -356t-389.5 -135z" />
    <glyph glyph-name="Ucircumflex" unicode="&#xdb;" horiz-adv-x="1249" 
d="M512 1577q-21 0 -25.5 13t9.5 30l161 199q17 20 45 20h216q27 0 38 -20l119 -199q9 -17 1.5 -30t-27.5 -13h-148q-24 0 -37 22l-59 117q-7 14 -17 0l-88 -117q-16 -22 -41 -22h-147zM584 -16q-230 0 -355.5 135t-99.5 356l115 924q3 35 37 35h213q33 0 30 -35l-114 -926
q-14 -108 42.5 -175t161.5 -67t178 67t87 175l112 926q6 35 39 35h213q35 0 29 -35l-113 -924q-28 -221 -185.5 -356t-389.5 -135z" />
    <glyph glyph-name="Udieresis" unicode="&#xdc;" horiz-adv-x="1249" 
d="M590 1577q-62 0 -97 39.5t-28 103.5t52.5 105t107.5 41t95 -40.5t25 -105.5q-7 -64 -50 -103.5t-105 -39.5zM971 1577q-64 0 -98 39t-25 104q8 65 51 105.5t107 40.5q62 0 95 -40.5t25 -105.5t-50 -104t-105 -39zM584 -16q-230 0 -355.5 135t-99.5 356l115 924
q3 35 37 35h213q33 0 30 -35l-114 -926q-14 -108 42.5 -175t161.5 -67t178 67t87 175l112 926q6 35 39 35h213q35 0 29 -35l-113 -924q-28 -221 -185.5 -356t-389.5 -135z" />
    <glyph glyph-name="Yacute" unicode="&#xdd;" horiz-adv-x="1224" 
d="M666 1556q-19 0 -24 11t5 30l121 187q15 24 43 24h201q20 0 25 -13t-9 -30l-151 -186q-16 -23 -43 -23h-168zM467 2q-35 0 -29 35l62 506q0 12 -2 16l-299 834q-6 17 1.5 29t26.5 12h232q28 0 35 -27l178 -533q2 -6 7 -6t9 6l307 533q17 27 43 27h232q20 0 26.5 -12
t-4.5 -29l-508 -834q-6 -12 -6 -16l-63 -506q-3 -35 -37 -35h-211z" />
    <glyph glyph-name="Thorn" unicode="&#xde;" horiz-adv-x="1155" 
d="M766 1149q196 0 303 -121t84 -315q-16 -126 -88.5 -224.5t-181.5 -151t-236 -52.5h-248q-11 0 -14 -13l-29 -237q-6 -35 -39 -35h-213q-31 0 -28 35l168 1364q3 35 37 35h213q33 0 30 -35l-30 -238q0 -12 10 -12h262zM645 518q91 0 153 50t74 139q10 92 -39.5 143
t-140.5 51h-217q-14 0 -14 -12l-45 -359q0 -12 12 -12h217z" />
    <glyph glyph-name="germandbls" unicode="&#xdf;" horiz-adv-x="1212" 
d="M102 2q-33 0 -30 35l116 954q28 216 172.5 337.5t372.5 121.5q235 0 359.5 -106t101.5 -291q-20 -185 -172 -267q-6 -3 -6.5 -8t4.5 -8q69 -45 102.5 -137t18.5 -211q-25 -203 -178.5 -312.5t-430.5 -109.5h-61q-34 0 -31 35l23 176q3 35 39 35h100q113 0 181.5 54
t80.5 151q12 98 -38.5 151t-155.5 55h-99q-34 0 -28 35l18 158q3 35 39 35h105q89 0 144.5 44t63.5 115q8 70 -36.5 115t-153.5 45q-92 0 -166 -50t-84 -136l-121 -983q-6 -35 -39 -35z" />
    <glyph glyph-name="agrave" unicode="&#xe0;" horiz-adv-x="1101" 
d="M768 1217q6 -19 -2 -30t-27 -11h-168q-23 0 -36 22l-105 186q-9 17 -2 30t27 13h200q28 0 37 -24zM805 1018q3 35 37 35h213q33 0 30 -35l-120 -983q-6 -35 -39 -35h-213q-16 0 -24 9t-5 26l6 55q1 7 -3 8.5t-9 -4.5q-95 -110 -242 -110q-134 0 -227.5 82.5t-118.5 218.5
q-21 99 -4 245q20 152 70 254q61 132 170.5 209.5t244.5 77.5q148 0 213 -100q4 -6 9.5 -4t5.5 10zM678 324q48 76 63 202q18 130 -14 211q-42 80 -125 80q-90 0 -147 -78q-59 -82 -74 -215q-15 -124 16 -200q37 -88 135 -88q87 0 146 88z" />
    <glyph glyph-name="aacute" unicode="&#xe1;" horiz-adv-x="1101" 
d="M907 1427q20 0 25 -13t-8 -30l-152 -186q-16 -22 -43 -22h-168q-19 0 -24 11t6 30l121 186q15 24 43 24h200zM805 1018q3 35 37 35h213q33 0 30 -35l-120 -983q-6 -35 -39 -35h-213q-16 0 -24 9t-5 26l6 55q1 7 -3 8.5t-9 -4.5q-95 -110 -242 -110q-134 0 -227.5 82.5
t-118.5 218.5q-21 99 -4 245q20 152 70 254q61 132 170.5 209.5t244.5 77.5q148 0 213 -100q4 -6 9.5 -4t5.5 10zM678 324q48 76 63 202q18 130 -14 211q-42 80 -125 80q-90 0 -147 -78q-59 -82 -74 -215q-15 -124 16 -200q37 -88 135 -88q87 0 146 88z" />
    <glyph glyph-name="acircumflex" unicode="&#xe2;" horiz-adv-x="1101" 
d="M684 1309q-3 6 -8 6t-8 -6l-88 -117q-20 -23 -43 -23h-148q-20 0 -25 13t9 30l164 199q18 21 45 21h213q29 0 41 -21l118 -199q9 -17 1 -30t-29 -13h-146q-26 0 -39 23zM805 1018q3 35 37 35h213q33 0 30 -35l-120 -983q-6 -35 -39 -35h-213q-16 0 -24 9t-5 26l6 55
q1 7 -3 8.5t-9 -4.5q-95 -110 -242 -110q-134 0 -227.5 82.5t-118.5 218.5q-21 99 -4 245q20 152 70 254q61 132 170.5 209.5t244.5 77.5q148 0 213 -100q4 -6 9.5 -4t5.5 10zM678 324q48 76 63 202q18 130 -14 211q-42 80 -125 80q-90 0 -147 -78q-59 -82 -74 -215
q-15 -124 16 -200q37 -88 135 -88q87 0 146 88z" />
    <glyph glyph-name="atilde" unicode="&#xe3;" horiz-adv-x="1101" 
d="M596 1260q-46 0 -78 -35q-26 -29 -47 -11l-63 50q-24 21 -7 47q36 67 87.5 101t109.5 34q36 0 63 -11.5t62 -35.5q58 -37 90 -37q43 0 72 37q24 28 47 10l65 -49q24 -21 7 -49q-45 -67 -101.5 -101t-107.5 -34q-56 0 -125 51q-44 33 -74 33zM805 1018q3 35 37 35h213
q33 0 30 -35l-120 -983q-6 -35 -39 -35h-213q-16 0 -24 9t-5 26l6 55q1 7 -3 8.5t-9 -4.5q-95 -110 -242 -110q-134 0 -227.5 82.5t-118.5 218.5q-21 99 -4 245q20 152 70 254q61 132 170.5 209.5t244.5 77.5q148 0 213 -100q4 -6 9.5 -4t5.5 10zM678 324q48 76 63 202
q18 130 -14 211q-42 80 -125 80q-90 0 -147 -78q-59 -82 -74 -215q-15 -124 16 -200q37 -88 135 -88q87 0 146 88z" />
    <glyph glyph-name="adieresis" unicode="&#xe4;" horiz-adv-x="1101" 
d="M467 1169q-62 0 -96 40t-27 104t52.5 104.5t107.5 40.5q61 0 95 -40t26 -105q-7 -64 -51 -104t-107 -40zM848 1169q-63 0 -97 39.5t-26 104.5t52 105t108 40q63 0 96 -40t25 -105q-7 -64 -51 -104t-107 -40zM805 1018q3 35 37 35h213q33 0 30 -35l-120 -983
q-6 -35 -39 -35h-213q-16 0 -24 9t-5 26l6 55q1 7 -3 8.5t-9 -4.5q-95 -110 -242 -110q-134 0 -227.5 82.5t-118.5 218.5q-21 99 -4 245q20 152 70 254q61 132 170.5 209.5t244.5 77.5q148 0 213 -100q4 -6 9.5 -4t5.5 10zM678 324q48 76 63 202q18 130 -14 211
q-42 80 -125 80q-90 0 -147 -78q-59 -82 -74 -215q-15 -124 16 -200q37 -88 135 -88q87 0 146 88z" />
    <glyph glyph-name="aring" unicode="&#xe5;" horiz-adv-x="1101" 
d="M655 1147q-94 0 -150 66t-44 161q12 96 84.5 162t165.5 66q92 0 149 -66.5t45 -161.5q-10 -95 -83.5 -161t-166.5 -66zM696 1473q-41 0 -72.5 -28t-35.5 -71q-5 -40 19.5 -68t64.5 -28q38 0 69 28t35 68q6 42 -17.5 70.5t-62.5 28.5zM805 1018q3 35 37 35h213
q33 0 30 -35l-120 -983q-6 -35 -39 -35h-213q-16 0 -24 9t-5 26l6 55q1 7 -3 8.5t-9 -4.5q-95 -110 -242 -110q-134 0 -227.5 82.5t-118.5 218.5q-21 99 -4 245q20 152 70 254q61 132 170.5 209.5t244.5 77.5q148 0 213 -100q4 -6 9.5 -4t5.5 10zM678 324q48 76 63 202
q18 130 -14 211q-42 80 -125 80q-90 0 -147 -78q-59 -82 -74 -215q-15 -124 16 -200q37 -88 135 -88q87 0 146 88z" />
    <glyph glyph-name="ae" unicode="&#xe6;" horiz-adv-x="1667" 
d="M393 -16q-172 0 -268 78t-78 229q19 150 137.5 238.5t315.5 88.5h200q13 0 13 13l6 39q8 68 -29.5 109.5t-116.5 41.5q-56 0 -99 -21t-62 -57q-15 -29 -43 -26l-211 28q-16 2 -23.5 12t-3.5 27q35 122 165 203.5t288 81.5q110 0 195.5 -45.5t119.5 -112.5q6 -8 14 0
q47 63 136 110.5t188 47.5q140 0 249.5 -82.5t135.5 -220.5q18 -95 -4 -295q-6 -37 -39 -37h-590q-11 0 -14 -12q0 -22 2 -45q3 -70 58.5 -105.5t144.5 -35.5q137 0 215 81q24 31 45 7l94 -103q17 -24 -2 -49q-72 -86 -178 -137t-230 -51q-116 0 -200.5 45.5t-116.5 115.5
q-8 11 -12 7q-58 -75 -164.5 -121.5t-237.5 -46.5zM999 631q-3 -13 11 -13h329q13 0 13 13q0 45 -4 61q-8 58 -47 93.5t-101 35.5q-63 0 -111.5 -35t-72.5 -94q-5 -15 -17 -61zM463 193q80 0 144 45t73 124l8 60q0 12 -10 12h-141q-90 0 -145 -31t-62 -90q-6 -53 29 -86.5
t104 -33.5z" />
    <glyph glyph-name="ccedilla" unicode="&#xe7;" horiz-adv-x="1067" 
d="M727 356l4 11q2 9 15 20t28 8l205 -33q31 -7 22 -38q-3 -22 -16 -48q-49 -112 -147 -185t-224 -97q-7 -1 -9 -7t3 -10q96 -108 54 -227q-22 -54 -62.5 -86t-87.5 -38.5t-89 -2.5t-77 17q-27 8 -20 41l20 81q9 34 45 25q32 -8 59 2.5t39 40.5q26 67 -77 160q-10 5 -13 6
q-115 26 -191 102.5t-102 192.5q-20 102 -4 241q16 132 64 238q65 139 192 219t285 80q160 0 270 -82t134 -207q8 -33 8 -63t-33 -37l-213 -33q-15 -3 -25 3.5t-10 19.5l-2 28q-8 53 -51 88t-109 35q-64 0 -111.5 -32.5t-72.5 -90.5q-32 -69 -43 -168q-14 -104 0 -168
q9 -61 49 -96t105 -35q63 0 113 34t75 91z" />
    <glyph glyph-name="egrave" unicode="&#xe8;" 
d="M758 1235q6 -19 -2 -30t-27 -11h-168q-24 0 -37 23l-104 186q-10 17 -2.5 30t28.5 13h201q28 0 37 -25zM584 227q134 6 213 95q29 29 47 4l100 -113q19 -22 -2 -49q-74 -84 -183.5 -132t-230.5 -48q-183 0 -290.5 96.5t-128.5 263.5q-15 89 -3 191q15 115 48 200
q59 152 190 244t297 92q194 0 293.5 -119.5t107.5 -333.5q0 -78 -8 -149q-3 -35 -37 -35h-610q-12 0 -12 -12q-3 -37 4 -64q13 -63 67 -97t138 -34zM606 821q-129 0 -180 -121q-15 -34 -18 -51q-3 -12 8 -12h338q12 0 12 12q0 19 -4 43q-11 60 -50.5 94.5t-105.5 34.5z" />
    <glyph glyph-name="eacute" unicode="&#xe9;" 
d="M897 1446q20 0 25 -13t-9 -30l-149 -186q-20 -23 -45 -23h-168q-19 0 -24 11t5 30l121 186q16 25 43 25h201zM584 227q134 6 213 95q29 29 47 4l100 -113q19 -22 -2 -49q-74 -84 -183.5 -132t-230.5 -48q-183 0 -290.5 96.5t-128.5 263.5q-15 89 -3 191q15 115 48 200
q59 152 190 244t297 92q194 0 293.5 -119.5t107.5 -333.5q0 -78 -8 -149q-3 -35 -37 -35h-610q-12 0 -12 -12q-3 -37 4 -64q13 -63 67 -97t138 -34zM606 821q-129 0 -180 -121q-15 -34 -18 -51q-3 -12 8 -12h338q12 0 12 12q0 19 -4 43q-11 60 -50.5 94.5t-105.5 34.5z" />
    <glyph glyph-name="ecircumflex" unicode="&#xea;" 
d="M674 1327q-7 14 -17 0l-88 -117q-19 -22 -43 -22h-145q-22 0 -26.5 13t10.5 30l161 199q17 20 45 20h215q28 0 39 -20l119 -199q9 -17 1.5 -30t-27.5 -13h-148q-24 0 -37 22zM584 227q134 6 213 95q29 29 47 4l100 -113q19 -22 -2 -49q-74 -84 -183.5 -132t-230.5 -48
q-183 0 -290.5 96.5t-128.5 263.5q-15 89 -3 191q15 115 48 200q59 152 190 244t297 92q194 0 293.5 -119.5t107.5 -333.5q0 -78 -8 -149q-3 -35 -37 -35h-610q-12 0 -12 -12q-3 -37 4 -64q13 -63 67 -97t138 -34zM606 821q-129 0 -180 -121q-15 -34 -18 -51q-3 -12 8 -12
h338q12 0 12 12q0 19 -4 43q-11 60 -50.5 94.5t-105.5 34.5z" />
    <glyph glyph-name="edieresis" unicode="&#xeb;" 
d="M459 1188q-62 0 -97 39.5t-28 103.5t52.5 105t107.5 41t95 -40.5t25 -105.5q-7 -64 -50 -103.5t-105 -39.5zM840 1188q-64 0 -98.5 39t-26.5 104q9 65 52 105.5t107 40.5q63 0 96 -40.5t25 -105.5q-7 -64 -50 -103.5t-105 -39.5zM584 227q134 6 213 95q29 29 47 4
l100 -113q19 -22 -2 -49q-74 -84 -183.5 -132t-230.5 -48q-183 0 -290.5 96.5t-128.5 263.5q-15 89 -3 191q15 115 48 200q59 152 190 244t297 92q194 0 293.5 -119.5t107.5 -333.5q0 -78 -8 -149q-3 -35 -37 -35h-610q-12 0 -12 -12q-3 -37 4 -64q13 -63 67 -97t138 -34z
M606 821q-129 0 -180 -121q-15 -34 -18 -51q-3 -12 8 -12h338q12 0 12 12q0 19 -4 43q-11 60 -50.5 94.5t-105.5 34.5z" />
    <glyph glyph-name="igrave" unicode="&#xec;" horiz-adv-x="479" 
d="M446 1239q6 -19 -1.5 -30t-26.5 -11h-168q-24 0 -37 23l-104 186q-10 17 -2.5 30t28.5 13h201q29 0 35 -25zM92 0q-34 0 -31 35l121 983q6 35 39 35h213q32 0 29 -35l-121 -983q-3 -35 -39 -35h-211z" />
    <glyph glyph-name="iacute" unicode="&#xed;" horiz-adv-x="479" 
d="M240 1198q-19 0 -24 11t5 30l121 186q16 25 43 25h201q20 0 25 -13t-9 -30l-149 -186q-20 -23 -45 -23h-168zM92 0q-34 0 -31 35l121 983q6 35 39 35h213q32 0 29 -35l-121 -983q-3 -35 -39 -35h-211z" />
    <glyph glyph-name="icircumflex" unicode="&#xee;" horiz-adv-x="479" 
d="M70 1192q-22 0 -27 13t10 30l162 199q17 20 45 20h215q28 0 39 -20l119 -199q9 -17 1 -30t-28 -13h-147q-24 0 -37 22l-60 117q-3 6 -8 6t-8 -6l-88 -117q-19 -22 -43 -22h-145zM92 0q-34 0 -31 35l121 983q6 35 39 35h213q32 0 29 -35l-121 -983q-3 -35 -39 -35h-211z
" />
    <glyph glyph-name="idieresis" unicode="&#xef;" horiz-adv-x="532" 
d="M174 1192q-62 0 -96 39.5t-27 103.5t52 105t106 41q63 0 97 -40.5t26 -105.5q-9 -65 -52 -104t-106 -39zM555 1192q-63 0 -97 39t-26 104t52 105.5t108 40.5q61 0 95 -40.5t26 -105.5q-7 -64 -51 -103.5t-107 -39.5zM119 0q-16 0 -24 9t-5 26l121 983q3 35 37 35h213
q34 0 31 -35l-121 -983q-6 -35 -39 -35h-213z" />
    <glyph glyph-name="eth" unicode="&#xf0;" horiz-adv-x="1075" 
d="M1008 750q12 -119 -7 -271q-14 -129 -57 -219q-64 -124 -188.5 -200t-276.5 -76t-257 74.5t-138 201.5q-22 89 -6 219q18 131 59 217q34 74 96 129t138 78q68 29 168 33t161 -23q6 -3 9 0t2 11q-18 61 -62 159q-4 11 -14 7l-195 -54q-15 -4 -25 4t-12 23l-12 86
q-6 30 29 41l127 35q15 4 6 16q-53 77 -117 150q-13 17 -5.5 30t30.5 13h217q26 0 41 -21q15 -22 40.5 -61t35.5 -54q6 -9 16 -6l162 45q15 4 25.5 -3.5t13.5 -22.5l10 -86q6 -30 -29 -41l-94 -25q-11 -3 -8 -16q112 -206 117 -393zM680 324q24 47 37 147q12 94 -2 143
q-11 56 -48.5 87.5t-95.5 31.5t-103.5 -31.5t-70.5 -87.5q-29 -59 -37 -143q-11 -92 5 -147q9 -56 46 -89.5t95 -33.5q57 0 103 33t71 90z" />
    <glyph glyph-name="ntilde" unicode="&#xf1;" 
d="M596 1260q-46 0 -78 -35q-26 -29 -47 -11l-63 50q-24 21 -7 47q36 67 87.5 101t109.5 34q36 0 63 -11.5t62 -35.5q58 -37 90 -37q43 0 72 37q24 28 47 10l65 -49q24 -21 7 -49q-45 -67 -101.5 -101t-107.5 -34q-56 0 -125 51q-44 33 -74 33zM727 1069q159 0 243.5 -100
t63.5 -273l-80 -661q-6 -35 -39 -35h-213q-31 0 -28 35l74 602q11 82 -27.5 133t-110.5 51q-74 0 -126 -50.5t-62 -133.5l-74 -602q-3 -35 -39 -35h-211q-33 0 -30 35l120 983q3 35 39 35h211q34 0 31 -35l-8 -57q0 -19 12 -7q93 115 254 115z" />
    <glyph glyph-name="ograve" unicode="&#xf2;" horiz-adv-x="1105" 
d="M768 1233q6 -19 -2 -30t-27 -11h-168q-23 0 -36 22l-105 187q-9 17 -2 30t27 13h200q28 0 37 -25zM514 -16q-168 0 -276.5 89.5t-133.5 245.5q-15 90 -2 209q17 130 58 217q63 152 192 238t297 86q163 0 268.5 -85.5t133.5 -235.5q19 -101 4 -216q-11 -100 -51 -206
q-65 -159 -194.5 -250.5t-295.5 -91.5zM545 231q64 0 114 41t80 113q23 59 33 143q10 95 2 146q-11 70 -52.5 108.5t-109.5 38.5q-65 0 -115.5 -39t-78.5 -108q-24 -63 -33 -146q-10 -91 -2 -143q11 -72 52 -113t110 -41z" />
    <glyph glyph-name="oacute" unicode="&#xf3;" horiz-adv-x="1105" 
d="M561 1192q-19 0 -24 11t6 30l121 186q16 25 43 25h200q20 0 25 -13t-8 -30l-152 -187q-16 -22 -43 -22h-168zM514 -16q-168 0 -276.5 89.5t-133.5 245.5q-15 90 -2 209q17 130 58 217q63 152 192 238t297 86q163 0 268.5 -85.5t133.5 -235.5q19 -101 4 -216
q-11 -100 -51 -206q-65 -159 -194.5 -250.5t-295.5 -91.5zM545 231q64 0 114 41t80 113q23 59 33 143q10 95 2 146q-11 70 -52.5 108.5t-109.5 38.5q-65 0 -115.5 -39t-78.5 -108q-24 -63 -33 -146q-10 -91 -2 -143q11 -72 52 -113t110 -41z" />
    <glyph glyph-name="ocircumflex" unicode="&#xf4;" horiz-adv-x="1105" 
d="M389 1186q-20 0 -25 13t9 30l164 198q18 21 45 21h213q29 0 41 -21l118 -198q9 -17 1 -30t-29 -13h-146q-26 0 -39 22l-57 117q-3 6 -8 6t-8 -6l-88 -117q-19 -22 -43 -22h-148zM514 -16q-168 0 -276.5 89.5t-133.5 245.5q-15 90 -2 209q17 130 58 217q63 152 192 238
t297 86q163 0 268.5 -85.5t133.5 -235.5q19 -101 4 -216q-11 -100 -51 -206q-65 -159 -194.5 -250.5t-295.5 -91.5zM545 231q64 0 114 41t80 113q23 59 33 143q10 95 2 146q-11 70 -52.5 108.5t-109.5 38.5q-65 0 -115.5 -39t-78.5 -108q-24 -63 -33 -146q-10 -91 -2 -143
q11 -72 52 -113t110 -41z" />
    <glyph glyph-name="otilde" unicode="&#xf5;" horiz-adv-x="1105" 
d="M795 1192q-56 0 -125 51q-44 33 -74 33q-46 0 -78 -35q-26 -29 -47 -10l-63 49q-24 21 -7 47q36 67 87.5 101t109.5 34q36 0 63 -11.5t62 -35.5q58 -37 90 -37q43 0 72 37q24 28 47 10l65 -49q25 -21 -4 -63q-44 -60 -96.5 -90.5t-101.5 -30.5zM514 -16
q-168 0 -276.5 89.5t-133.5 245.5q-15 90 -2 209q17 130 58 217q63 152 192 238t297 86q163 0 268.5 -85.5t133.5 -235.5q19 -101 4 -216q-11 -100 -51 -206q-65 -159 -194.5 -250.5t-295.5 -91.5zM545 231q64 0 114 41t80 113q23 59 33 143q10 95 2 146q-11 70 -52.5 108.5
t-109.5 38.5q-65 0 -115.5 -39t-78.5 -108q-24 -63 -33 -146q-10 -91 -2 -143q11 -72 52 -113t110 -41z" />
    <glyph glyph-name="odieresis" unicode="&#xf6;" horiz-adv-x="1105" 
d="M467 1186q-62 0 -96 39.5t-27 103.5t52.5 105t107.5 41q61 0 95 -40.5t26 -105.5q-7 -64 -51 -103.5t-107 -39.5zM848 1186q-63 0 -97 39t-26 104t52 105.5t108 40.5q63 0 96 -40.5t25 -105.5q-7 -64 -51 -103.5t-107 -39.5zM514 -16q-168 0 -276.5 89.5t-133.5 245.5
q-15 90 -2 209q17 130 58 217q63 152 192 238t297 86q163 0 268.5 -85.5t133.5 -235.5q19 -101 4 -216q-11 -100 -51 -206q-65 -159 -194.5 -250.5t-295.5 -91.5zM545 231q64 0 114 41t80 113q23 59 33 143q10 95 2 146q-11 70 -52.5 108.5t-109.5 38.5q-65 0 -115.5 -39
t-78.5 -108q-24 -63 -33 -146q-10 -91 -2 -143q11 -72 52 -113t110 -41z" />
    <glyph glyph-name="divide" unicode="&#xf7;" horiz-adv-x="964" 
d="M549 854q-58 0 -93.5 41t-27.5 100q8 57 52.5 98.5t101.5 41.5q55 0 89.5 -41.5t28.5 -98.5q-7 -58 -52 -99.5t-99 -41.5zM115 514q-35 0 -29 35l20 178q6 35 39 35h783q34 0 28 -35l-20 -178q-6 -35 -39 -35h-782zM463 160q-58 0 -92.5 41t-28.5 100q8 57 53.5 98
t102.5 41q55 0 89.5 -41t26.5 -98q-6 -58 -50.5 -99.5t-100.5 -41.5z" />
    <glyph glyph-name="oslash" unicode="&#xf8;" horiz-adv-x="1116" 
d="M1061 748q17 -90 4 -216q-11 -100 -51 -206q-65 -159 -194.5 -250.5t-295.5 -91.5q-130 0 -225 53q-9 6 -16 -4l-76 -94q-22 -29 -49 -9l-62 52q-22 19 -2 49l84 102q6 9 0 17q-47 67 -63 169q-15 90 -2 209q17 133 57 217q63 152 192 238t297 86q120 0 209 -47
q11 -4 17 6l71 90q22 28 48 8l61 -51q24 -21 2 -49l-74 -94q-8 -8 -2 -17q51 -69 70 -167zM395 528q-6 -55 -6 -104q2 -8 6.5 -8.5t10.5 6.5l290 369q10 10 0 16q-28 14 -73 14q-65 0 -116 -39t-79 -108q-24 -63 -33 -146zM748 385q23 53 34 143q7 73 4 121q0 8 -5 8.5
t-9 -6.5l-303 -381q-7 -10 2 -16q38 -23 84 -23q65 0 115 41t78 113z" />
    <glyph glyph-name="ugrave" unicode="&#xf9;" horiz-adv-x="1083" 
d="M750 1217q6 -19 -2 -30t-27 -11h-168q-24 0 -37 22l-104 186q-10 17 -2.5 30t28.5 13h201q28 0 37 -24zM784 1018q3 35 39 35h211q34 0 31 -35l-121 -983q-3 -35 -39 -35h-211q-33 0 -30 35l6 55q1 7 -3.5 8.5t-9.5 -4.5q-91 -108 -258 -108q-151 0 -236.5 93.5
t-64.5 264.5l82 674q6 35 39 35h211q32 0 29 -35l-74 -602q-11 -83 26 -134t111 -51q68 0 117.5 41.5t67.5 110.5z" />
    <glyph glyph-name="uacute" unicode="&#xfa;" horiz-adv-x="1083" 
d="M889 1427q20 0 25 -13t-9 -30l-149 -186q-19 -22 -45 -22h-168q-19 0 -24 11t5 30l121 186q15 24 43 24h201zM784 1018q3 35 39 35h211q34 0 31 -35l-121 -983q-3 -35 -39 -35h-211q-33 0 -30 35l6 55q1 7 -3.5 8.5t-9.5 -4.5q-91 -108 -258 -108q-151 0 -236.5 93.5
t-64.5 264.5l82 674q6 35 39 35h211q32 0 29 -35l-74 -602q-11 -83 26 -134t111 -51q68 0 117.5 41.5t67.5 110.5z" />
    <glyph glyph-name="ucircumflex" unicode="&#xfb;" horiz-adv-x="1083" 
d="M666 1309q-7 14 -17 0l-88 -117q-20 -23 -43 -23h-145q-22 0 -27 13t10 30l162 199q18 21 45 21h215q27 0 39 -21l119 -199q9 -17 1 -30t-28 -13h-147q-24 0 -37 23zM784 1018q3 35 39 35h211q34 0 31 -35l-121 -983q-3 -35 -39 -35h-211q-33 0 -30 35l6 55q1 7 -3.5 8.5
t-9.5 -4.5q-91 -108 -258 -108q-151 0 -236.5 93.5t-64.5 264.5l82 674q6 35 39 35h211q32 0 29 -35l-74 -602q-11 -83 26 -134t111 -51q68 0 117.5 41.5t67.5 110.5z" />
    <glyph glyph-name="udieresis" unicode="&#xfc;" horiz-adv-x="1083" 
d="M449 1169q-61 0 -95.5 40t-27.5 104t52 104.5t107 40.5q63 0 96 -40t25 -105t-51 -104.5t-106 -39.5zM831 1169q-64 0 -98 39.5t-26 104.5q9 65 52 105t107 40q63 0 96 -40t25 -105q-7 -64 -50.5 -104t-105.5 -40zM784 1018q3 35 39 35h211q34 0 31 -35l-121 -983
q-3 -35 -39 -35h-211q-33 0 -30 35l6 55q1 7 -3.5 8.5t-9.5 -4.5q-91 -108 -258 -108q-151 0 -236.5 93.5t-64.5 264.5l82 674q6 35 39 35h211q32 0 29 -35l-74 -602q-11 -83 26 -134t111 -51q68 0 117.5 41.5t67.5 110.5z" />
    <glyph glyph-name="yacute" unicode="&#xfd;" horiz-adv-x="1003" 
d="M510 1196q-19 0 -24 11t6 30l120 186q16 25 43 25h201q20 0 25 -13t-9 -30l-151 -186q-16 -23 -43 -23h-168zM8 -408q-13 0 -10 35l20 168q3 35 17 35h12q123 0 179.5 32t92.5 130q3 9 3 16l-197 1006q-4 17 5 28t28 11h227q29 0 35 -29l88 -610q0 -5 3 -7t7 0t6 7
l230 608q10 31 41 31h229q17 0 23.5 -11t-0.5 -28l-469 -1053q-41 -90 -73.5 -145t-76.5 -102.5t-99 -71.5t-129.5 -37t-179.5 -13h-12z" />
    <glyph glyph-name="thorn" unicode="&#xfe;" horiz-adv-x="1081" 
d="M1038 784q23 -98 6 -254q-17 -145 -63 -245q-57 -136 -171.5 -218.5t-248.5 -82.5q-122 0 -192 77q-5 6 -9 5t-6 -9l-53 -432q-3 -35 -37 -35h-213q-34 0 -28 35l217 1774q3 35 36 35h213q34 0 31 -35l-49 -393q-1 -8 3 -9.5t11 2.5q81 72 209 72q134 0 225 -78t119 -209
zM684 324q52 81 66 200q15 135 -21 215q-41 78 -131 78q-83 0 -141 -80l-19 -32q-6 -12 -6 -17l-39 -319q0 -1 -0.5 -4.5t-0.5 -6.5t1 -6q2 -8 10 -28q37 -88 125 -88q97 0 156 88z" />
    <glyph glyph-name="ydieresis" unicode="&#xff;" horiz-adv-x="1003" 
d="M416 1190q-62 0 -96 39.5t-27 103.5t52.5 105t107.5 41q61 0 94.5 -40.5t25.5 -105.5q-7 -64 -50.5 -103.5t-106.5 -39.5zM797 1190q-63 0 -97 39t-26 104t52 105.5t108 40.5q62 0 95 -40.5t25 -105.5q-7 -64 -50.5 -103.5t-106.5 -39.5zM8 -408q-13 0 -10 35l20 168
q3 35 17 35h12q123 0 179.5 32t92.5 130q3 9 3 16l-197 1006q-4 17 5 28t28 11h227q29 0 35 -29l88 -610q0 -5 3 -7t7 0t6 7l230 608q10 31 41 31h229q17 0 23.5 -11t-0.5 -28l-469 -1053q-41 -90 -73.5 -145t-76.5 -102.5t-99 -71.5t-129.5 -37t-179.5 -13h-12z" />
    <glyph glyph-name="Amacron" unicode="&#x100;" horiz-adv-x="1333" 
d="M1098 1759q33 0 30 -35l-16 -125q-3 -34 -39 -34h-516q-32 0 -29 34l15 125q6 35 39 35h516zM975 0q-30 0 -33 29l-33 190q-3 10 -10 10h-487q-10 0 -13 -10l-80 -190q-13 -29 -40 -29h-232q-17 0 -23.5 11t1.5 28l591 1366q13 29 41 29h291q29 0 35 -29l256 -1366
q3 -17 -6.5 -28t-26.5 -11h-231zM498 467q-3 -14 8 -14h352q12 0 12 14l-102 625q-1 5 -3.5 6.5t-6 0t-6.5 -6.5z" />
    <glyph glyph-name="amacron" unicode="&#x101;" horiz-adv-x="1101" 
d="M942 1378q35 0 29 -35l-15 -124q-3 -35 -38 -35h-517q-34 0 -28 35l14 124q6 35 39 35h516zM805 1018q3 35 37 35h213q33 0 30 -35l-120 -983q-6 -35 -39 -35h-213q-16 0 -24 9t-5 26l6 55q1 7 -3 8.5t-9 -4.5q-95 -110 -242 -110q-134 0 -227.5 82.5t-118.5 218.5
q-21 99 -4 245q20 152 70 254q61 132 170.5 209.5t244.5 77.5q148 0 213 -100q4 -6 9.5 -4t5.5 10zM678 324q48 76 63 202q18 130 -14 211q-42 80 -125 80q-90 0 -147 -78q-59 -82 -74 -215q-15 -124 16 -200q37 -88 135 -88q87 0 146 88z" />
    <glyph glyph-name="Abreve" unicode="&#x102;" horiz-adv-x="1333" 
d="M809 1505q-95 0 -156.5 58.5t-64.5 148.5q0 37 39 37h78q15 0 22 -7.5t10 -25.5q5 -36 29 -59t59 -23t65 23t44 59q11 33 39 33h80q37 0 28 -35q-23 -91 -100 -150t-172 -59zM975 0q-30 0 -33 29l-33 190q-3 10 -10 10h-487q-10 0 -13 -10l-80 -190q-13 -29 -40 -29h-232
q-17 0 -23.5 11t1.5 28l591 1366q13 29 41 29h291q29 0 35 -29l256 -1366q3 -17 -6.5 -28t-26.5 -11h-231zM498 467q-3 -14 8 -14h352q12 0 12 14l-102 625q-1 5 -3.5 6.5t-6 0t-6.5 -6.5z" />
    <glyph glyph-name="abreve" unicode="&#x103;" horiz-adv-x="1101" 
d="M653 1124q-95 0 -157 58.5t-64 148.5q0 18 10.5 27.5t26.5 9.5h80q27 0 33 -33q5 -36 29 -59t57 -23q36 0 66 23t44 59q11 33 39 33h80q38 0 29 -35q-23 -91 -100.5 -150t-172.5 -59zM805 1018q3 35 37 35h213q33 0 30 -35l-120 -983q-6 -35 -39 -35h-213q-16 0 -24 9
t-5 26l6 55q1 7 -3 8.5t-9 -4.5q-95 -110 -242 -110q-134 0 -227.5 82.5t-118.5 218.5q-21 99 -4 245q20 152 70 254q61 132 170.5 209.5t244.5 77.5q148 0 213 -100q4 -6 9.5 -4t5.5 10zM678 324q48 76 63 202q18 130 -14 211q-42 80 -125 80q-90 0 -147 -78
q-59 -82 -74 -215q-15 -124 16 -200q37 -88 135 -88q87 0 146 88z" />
    <glyph glyph-name="Aogonek" unicode="&#x104;" horiz-adv-x="1353" 
d="M1026 -184q4 -30 28.5 -40.5t59.5 -2.5q36 9 39 -25v-82q0 -32 -29 -41q-40 -13 -82.5 -17t-87.5 3t-77.5 39t-40.5 86q-16 133 133 250q13 9 14 14h-8q-30 0 -33 29l-33 190q-3 10 -10 10h-487q-10 0 -13 -10l-80 -190q-13 -29 -40 -29h-232q-17 0 -23.5 11t1.5 28
l591 1366q13 29 41 29h291q29 0 35 -29l256 -1366q3 -17 -4 -28t-21 -11h-26q-10 0 -23 -8q-148 -100 -139 -176zM498 467q-3 -14 8 -14h352q12 0 12 14l-102 625q-1 5 -3.5 6.5t-6 0t-6.5 -6.5z" />
    <glyph glyph-name="aogonek" unicode="&#x105;" horiz-adv-x="1191" 
d="M942 2q-3 -1 -8 -3t-8 -3q-157 -105 -146 -180q4 -30 28.5 -40.5t59.5 -2.5q36 9 39 -25v-82q-3 -34 -28 -41q-40 -13 -82.5 -17t-87.5 3t-78 39t-41 86q-16 133 133 250q11 11 6 14h-16q-16 0 -24 9t-5 26l6 55q1 7 -3 8.5t-9 -4.5q-95 -110 -242 -110
q-134 0 -227.5 82.5t-118.5 218.5q-21 99 -4 245q20 152 70 254q61 132 170.5 209.5t244.5 77.5q148 0 213 -100q4 -6 9.5 -4t5.5 10l6 41q3 35 37 35h213q33 0 30 -35l-120 -983q-7 -30 -23 -33zM678 324q48 76 63 202q18 130 -14 211q-42 80 -125 80q-90 0 -147 -78
q-59 -82 -74 -215q-15 -124 16 -200q37 -88 135 -88q87 0 146 88z" />
    <glyph glyph-name="Cacute" unicode="&#x106;" horiz-adv-x="1208" 
d="M666 1573q-19 0 -24 11t5 30l121 186q16 25 43 25h201q20 0 25 -13t-9 -30l-151 -187q-16 -22 -43 -22h-168zM567 -16q-233 0 -357.5 136.5t-96.5 360.5l57 473q28 224 186.5 360t391.5 136q232 0 357 -129.5t99 -343.5q-3 -20 -35 -23l-213 -14q-11 -1 -19.5 0.5t-12 4
t-2.5 5.5l2 13q12 107 -44.5 173t-162.5 66t-179 -66t-85 -173l-62 -494q-12 -107 44.5 -172.5t162.5 -65.5q105 0 177.5 66t86.5 172q4 26 37 23l211 -11q33 -3 33 -10l-2 -10q-26 -215 -184 -346t-390 -131z" />
    <glyph glyph-name="cacute" unicode="&#x107;" horiz-adv-x="1067" 
d="M555 1192q-19 0 -24 11t6 30l120 186q16 25 43 25h201q20 0 25 -13t-8 -30l-152 -187q-16 -22 -43 -22h-168zM510 -16q-158 0 -264.5 82.5t-139.5 224.5q-20 102 -4 241q16 132 64 238q65 139 192 219t285 80q160 0 270 -82t134 -207q8 -33 8 -63t-33 -37l-213 -33
q-15 -3 -25 3.5t-10 19.5l-2 28q-8 53 -51 88t-109 35q-64 0 -111.5 -32.5t-72.5 -90.5q-32 -69 -43 -168q-14 -104 0 -168q9 -61 49 -96t105 -35q63 0 113 34t75 91l4 11q2 9 15 20t28 8l205 -33q31 -7 22 -38q-3 -22 -16 -48q-59 -136 -188.5 -214t-286.5 -78z" />
    <glyph glyph-name="Cdotaccent" unicode="&#x10a;" horiz-adv-x="1208" 
d="M762 1554q-58 0 -89.5 37t-23.5 97q6 60 46.5 96.5t99.5 36.5q56 0 86 -36.5t24 -96.5q-7 -60 -47 -97t-96 -37zM567 -16q-233 0 -357.5 136.5t-96.5 360.5l57 473q28 224 186.5 360t391.5 136q232 0 357 -129.5t99 -343.5q-3 -20 -35 -23l-213 -14q-11 -1 -19.5 0.5
t-12 4t-2.5 5.5l2 13q12 107 -44.5 173t-162.5 66t-179 -66t-85 -173l-62 -494q-12 -107 44.5 -172.5t162.5 -65.5q105 0 177.5 66t86.5 172q4 26 37 23l211 -11q33 -3 33 -10l-2 -10q-26 -215 -184 -346t-390 -131z" />
    <glyph glyph-name="cdotaccent" unicode="&#x10b;" horiz-adv-x="1067" 
d="M651 1174q-58 0 -89 36.5t-23 96.5q6 60 46 96.5t99 36.5q57 0 87.5 -36.5t23.5 -96.5t-47 -96.5t-97 -36.5zM510 -16q-158 0 -264.5 82.5t-139.5 224.5q-20 102 -4 241q16 132 64 238q65 139 192 219t285 80q160 0 270 -82t134 -207q8 -33 8 -63t-33 -37l-213 -33
q-15 -3 -25 3.5t-10 19.5l-2 28q-8 53 -51 88t-109 35q-64 0 -111.5 -32.5t-72.5 -90.5q-32 -69 -43 -168q-14 -104 0 -168q9 -61 49 -96t105 -35q63 0 113 34t75 91l4 11q2 9 15 20t28 8l205 -33q31 -7 22 -38q-3 -22 -16 -48q-59 -136 -188.5 -214t-286.5 -78z" />
    <glyph glyph-name="Ccaron" unicode="&#x10c;" horiz-adv-x="1208" 
d="M639 1554q-24 0 -37 23l-100 197q-8 17 -1 30t27 13h144q24 0 37 -23l59 -117q6 -13 16 0l88 117q16 23 41 23h142q22 0 26.5 -13t-10.5 -30l-151 -197q-20 -23 -43 -23h-238zM567 -16q-233 0 -357.5 136.5t-96.5 360.5l57 473q28 224 186.5 360t391.5 136
q232 0 357 -129.5t99 -343.5q-3 -20 -35 -23l-213 -14q-11 -1 -19.5 0.5t-12 4t-2.5 5.5l2 13q12 107 -44.5 173t-162.5 66t-179 -66t-85 -173l-62 -494q-12 -107 44.5 -172.5t162.5 -65.5q105 0 177.5 66t86.5 172q4 26 37 23l211 -11q33 -3 33 -10l-2 -10
q-26 -215 -184 -346t-390 -131z" />
    <glyph glyph-name="ccaron" unicode="&#x10d;" horiz-adv-x="1067" 
d="M530 1174q-25 0 -38 22l-101 197q-8 17 -0.5 30t27.5 13h143q24 0 37 -23l59 -117q3 -6 8.5 -6t8.5 6l88 117q20 23 43 23h139q22 0 27.5 -13t-8.5 -30l-154 -197q-19 -22 -43 -22h-236zM510 -16q-158 0 -264.5 82.5t-139.5 224.5q-20 102 -4 241q16 132 64 238
q65 139 192 219t285 80q160 0 270 -82t134 -207q8 -33 8 -63t-33 -37l-213 -33q-15 -3 -25 3.5t-10 19.5l-2 28q-8 53 -51 88t-109 35q-64 0 -111.5 -32.5t-72.5 -90.5q-32 -69 -43 -168q-14 -104 0 -168q9 -61 49 -96t105 -35q63 0 113 34t75 91l4 11q2 9 15 20t28 8
l205 -33q31 -7 22 -38q-3 -22 -16 -48q-59 -136 -188.5 -214t-286.5 -78z" />
    <glyph glyph-name="Dcaron" unicode="&#x10e;" horiz-adv-x="1226" 
d="M625 1544q-24 0 -37 23l-101 194q-9 17 -1.5 30t28.5 13h143q24 0 37 -22l60 -117q2 -6 6.5 -6t7.5 6l88 117q19 22 43 22h141q20 0 25 -13t-8 -30l-154 -194q-20 -23 -43 -23h-235zM115 0q-32 0 -29 35l168 1364q3 35 37 35h487q224 0 346 -119.5t97 -315.5l-70 -565
q-23 -196 -173.5 -315t-375.5 -119h-487zM393 260q0 -12 10 -12h240q92 0 156.5 63.5t77.5 169.5l59 471q12 106 -36.5 170t-143.5 64h-238q-12 0 -12 -12z" />
    <glyph glyph-name="dcaron" unicode="&#x10f;" horiz-adv-x="1413" 
d="M784 971q4 -6 9.5 -4t5.5 10l53 422q3 35 37 35h213q34 0 28 -35l-165 -1364q-6 -35 -39 -35h-213q-16 0 -24 9t-5 26l6 55q1 7 -3 8.5t-9 -4.5q-95 -110 -242 -110q-134 0 -227.5 82.5t-118.5 218.5q-21 99 -4 245q20 152 70 254q61 132 170.5 209.5t244.5 77.5
q148 0 213 -100zM1282 1403q15 24 43 24h201q21 0 25.5 -13t-9.5 -30l-149 -186q-19 -22 -45 -22h-166q-20 0 -25.5 11t6.5 30zM678 324q48 76 63 202q18 130 -14 211q-42 80 -125 80q-90 0 -147 -78q-59 -82 -74 -215q-15 -124 16 -200q37 -88 135 -88q87 0 146 88z" />
    <glyph glyph-name="Dcroat" unicode="&#x110;" horiz-adv-x="1329" 
d="M879 1434q226 0 347.5 -119t96.5 -316l-70 -565q-25 -197 -175 -315.5t-376 -118.5h-485q-34 0 -31 35l74 594q0 12 -10 12h-55q-34 0 -31 35l16 127q3 35 37 35h57q13 0 13 12l67 549q3 35 39 35h486zM979 481l57 471q14 106 -35.5 170t-144.5 64h-235q-12 0 -15 -12
l-39 -324q0 -12 11 -12h147q16 0 24 -9t5 -26l-15 -127q-6 -35 -39 -35h-147q-12 0 -12 -12l-45 -369q-2 -5 1 -8.5t9 -3.5h237q93 0 158 64t78 169z" />
    <glyph glyph-name="dcroat" unicode="&#x111;" horiz-adv-x="1191" 
d="M1204 1317q34 0 31 -35l-14 -104q-3 -35 -37 -35h-72q-11 0 -14 -13l-133 -1095q-6 -35 -39 -35h-213q-16 0 -24 9t-5 26l6 55q1 7 -3 8.5t-9 -4.5q-95 -110 -242 -110q-134 0 -227.5 82.5t-118.5 218.5q-21 99 -4 245q20 152 70 254q61 132 170.5 209.5t244.5 77.5
q148 0 213 -100q4 -6 9.5 -4t5.5 10l20 153q0 13 -12 13h-260q-32 0 -29 35l12 104q6 35 39 35h260q13 0 13 12l10 70q3 35 37 35h213q34 0 28 -35l-8 -70q0 -12 11 -12h71zM678 324q48 76 63 202q18 130 -14 211q-42 80 -125 80q-90 0 -147 -78q-59 -82 -74 -215
q-15 -124 16 -200q37 -88 135 -88q87 0 146 88z" />
    <glyph glyph-name="Emacron" unicode="&#x112;" horiz-adv-x="1159" 
d="M1036 1784q32 0 29 -35l-14 -125q-6 -35 -39 -35h-516q-34 0 -31 35l16 125q3 35 37 35h518zM1196 1221q-3 -35 -37 -35h-641q-4 0 -8 -3.5t-4 -8.5l-39 -314q0 -12 10 -12h416q35 0 29 -35l-21 -178q-6 -35 -39 -35h-416q-12 0 -12 -12l-41 -328q0 -12 10 -12h641
q32 0 29 -35l-22 -178q-3 -35 -37 -35h-899q-32 0 -29 35l168 1364q3 35 37 35h899q32 0 29 -35z" />
    <glyph glyph-name="emacron" unicode="&#x113;" 
d="M932 1397q34 0 31 -35l-17 -125q-3 -35 -37 -35h-518q-32 0 -29 35l15 125q6 35 39 35h516zM584 227q134 6 213 95q29 29 47 4l100 -113q19 -22 -2 -49q-74 -84 -183.5 -132t-230.5 -48q-183 0 -290.5 96.5t-128.5 263.5q-15 89 -3 191q15 115 48 200q59 152 190 244
t297 92q194 0 293.5 -119.5t107.5 -333.5q0 -78 -8 -149q-3 -35 -37 -35h-610q-12 0 -12 -12q-3 -37 4 -64q13 -63 67 -97t138 -34zM606 821q-129 0 -180 -121q-15 -34 -18 -51q-3 -12 8 -12h338q12 0 12 12q0 19 -4 43q-11 60 -50.5 94.5t-105.5 34.5z" />
    <glyph glyph-name="Edotaccent" unicode="&#x116;" horiz-adv-x="1159" 
d="M750 1563q-58 0 -89.5 36.5t-23.5 96.5t47.5 96.5t97.5 36.5q57 0 87.5 -36.5t23.5 -96.5q-6 -60 -46 -96.5t-97 -36.5zM1196 1221q-3 -35 -37 -35h-641q-4 0 -8 -3.5t-4 -8.5l-39 -314q0 -12 10 -12h416q35 0 29 -35l-21 -178q-6 -35 -39 -35h-416q-12 0 -12 -12
l-41 -328q0 -12 10 -12h641q32 0 29 -35l-22 -178q-3 -35 -37 -35h-899q-32 0 -29 35l168 1364q3 35 37 35h899q32 0 29 -35z" />
    <glyph glyph-name="edotaccent" unicode="&#x117;" 
d="M647 1176q-58 0 -89 36.5t-23 96.5t47.5 96.5t97.5 36.5q57 0 87.5 -36.5t23.5 -96.5t-47 -96.5t-97 -36.5zM584 227q134 6 213 95q29 29 47 4l100 -113q19 -22 -2 -49q-74 -84 -183.5 -132t-230.5 -48q-183 0 -290.5 96.5t-128.5 263.5q-15 89 -3 191q15 115 48 200
q59 152 190 244t297 92q194 0 293.5 -119.5t107.5 -333.5q0 -78 -8 -149q-3 -35 -37 -35h-610q-12 0 -12 -12q-3 -37 4 -64q13 -63 67 -97t138 -34zM606 821q-129 0 -180 -121q-15 -34 -18 -51q-3 -12 8 -12h338q12 0 12 12q0 19 -4 43q-11 60 -50.5 94.5t-105.5 34.5z" />
    <glyph glyph-name="Eogonek" unicode="&#x118;" horiz-adv-x="1159" 
d="M1196 1221q-3 -35 -37 -35h-641q-4 0 -8 -3.5t-4 -8.5l-39 -314q0 -12 10 -12h416q35 0 29 -35l-21 -178q-6 -35 -39 -35h-416q-12 0 -12 -12l-41 -328q0 -12 10 -12h641q32 0 29 -35l-22 -178q-3 -35 -37 -35h-350q-9 0 -15 -6q-115 -84 -106 -150q4 -30 28.5 -40.5
t59.5 -2.5q36 9 39 -24v-82q0 -32 -29 -41q-40 -13 -82.5 -17t-87.5 2.5t-78 38.5t-41 86q-16 116 99 222q7 4 5 9t-10 5h-331q-32 0 -29 35l168 1364q3 35 37 35h899q32 0 29 -35z" />
    <glyph glyph-name="eogonek" unicode="&#x119;" 
d="M584 227q134 6 213 95q29 29 47 4l100 -113q19 -22 -2 -49q-122 -135 -307 -170q-6 -2 -14 -6q-132 -92 -123 -164q4 -30 28.5 -40.5t59.5 -2.5q36 9 39 -25l-2 -82q0 -32 -29 -41q-39 -13 -82 -17t-88 3t-77.5 39t-39.5 86q-16 125 113 233q7 5 6.5 10t-8.5 7
q-134 27 -212.5 119t-96.5 231q-15 89 -3 191q15 115 48 200q59 152 190 244t297 92q194 0 293.5 -119.5t107.5 -333.5q0 -78 -8 -149q-3 -35 -37 -35h-610q-12 0 -12 -12q-3 -37 4 -64q13 -63 67 -97t138 -34zM606 821q-129 0 -180 -121q-15 -34 -18 -51q-3 -12 8 -12h338
q12 0 12 12q0 19 -4 43q-11 60 -50.5 94.5t-105.5 34.5z" />
    <glyph glyph-name="Ecaron" unicode="&#x11a;" horiz-adv-x="1159" 
d="M907 1585q-16 -22 -41 -22h-237q-24 0 -37 22l-100 197q-10 17 -2.5 30t28.5 13h144q23 0 36 -23l60 -116q2 -6 7 -6t9 6l86 116q20 23 43 23h141q21 0 26 -13t-9 -30zM1196 1221q-3 -35 -37 -35h-641q-4 0 -8 -3.5t-4 -8.5l-39 -314q0 -12 10 -12h416q35 0 29 -35
l-21 -178q-6 -35 -39 -35h-416q-12 0 -12 -12l-41 -328q0 -12 10 -12h641q32 0 29 -35l-22 -178q-3 -35 -37 -35h-899q-32 0 -29 35l168 1364q3 35 37 35h899q32 0 29 -35z" />
    <glyph glyph-name="ecaron" unicode="&#x11b;" 
d="M805 1194q-20 -23 -43 -23h-238q-24 0 -37 23l-100 195q-8 17 -0.5 30t27.5 13h143q24 0 37 -23l59 -117q1 -6 7 -6t10 6l88 117q16 23 41 23h141q21 0 25.5 -13t-9.5 -30zM584 227q134 6 213 95q29 29 47 4l100 -113q19 -22 -2 -49q-74 -84 -183.5 -132t-230.5 -48
q-183 0 -290.5 96.5t-128.5 263.5q-15 89 -3 191q15 115 48 200q59 152 190 244t297 92q194 0 293.5 -119.5t107.5 -333.5q0 -78 -8 -149q-3 -35 -37 -35h-610q-12 0 -12 -12q-3 -37 4 -64q13 -63 67 -97t138 -34zM606 821q-129 0 -180 -121q-15 -34 -18 -51q-3 -12 8 -12
h338q12 0 12 12q0 19 -4 43q-11 60 -50.5 94.5t-105.5 34.5z" />
    <glyph glyph-name="Gbreve" unicode="&#x11e;" horiz-adv-x="1206" 
d="M756 1522q-95 0 -157 58.5t-64 148.5q0 36 36 36h80q15 0 22.5 -7.5t10.5 -24.5q5 -36 29 -59t57 -23q36 0 66.5 23t44.5 59q11 32 39 32h79q38 0 29 -34q-23 -91 -100 -150t-172 -59zM567 -16q-232 0 -357 138.5t-97 364.5l57 459q28 227 187 365.5t391 138.5
q151 0 261 -61.5t160 -166.5t35 -235v-4q-6 -35 -39 -35h-213q-14 0 -23 5.5t-7 11.5l2 14q11 95 -45 159t-162 64t-179 -69t-87 -179l-58 -475q-13 -109 47.5 -178.5t167.5 -69.5q104 0 172 56.5t80 156.5l12 91q0 12 -10 12h-211q-34 0 -28 35l20 168q3 34 37 34h465
q34 0 31 -34l-33 -261q-29 -234 -185.5 -369.5t-390.5 -135.5z" />
    <glyph glyph-name="gbreve" unicode="&#x11f;" horiz-adv-x="1103" 
d="M676 1143q-94 0 -155.5 59t-63.5 148q0 36 37 36h79q15 0 22.5 -7.5t10.5 -24.5q5 -36 29 -59t57 -23q35 0 66 23t45 59q11 32 39 32h80q16 0 24 -9t4 -25q-23 -91 -101 -150t-173 -59zM813 1018q3 35 37 35h213q35 0 29 -35l-113 -924q-11 -95 -42 -172.5t-74 -131
t-100.5 -92.5t-119 -60.5t-132 -31.5t-137 -9t-136.5 10q-28 3 -25 37l31 190q1 17 13.5 25.5t29.5 5.5q115 -15 201.5 -3t141.5 70.5t68 163.5q2 7 -3 7q-4 0 -9 -5q-85 -82 -229 -82q-60 0 -114.5 14t-105.5 44t-87.5 85t-51.5 130q-16 87 0 243q21 162 68 261
q58 125 166 200.5t239 75.5q153 0 222 -92q12 -12 16 6zM717 367q23 65 37 168q11 102 2 163q-11 56 -49 89.5t-99 33.5q-60 0 -106 -33.5t-72 -89.5q-34 -58 -49 -166q-12 -118 4 -163q11 -55 51.5 -89t102.5 -34q64 0 109.5 33t68.5 88z" />
    <glyph glyph-name="Gdotaccent" unicode="&#x120;" horiz-adv-x="1206" 
d="M760 1554q-58 0 -89.5 37t-23.5 97q6 60 46.5 96.5t99.5 36.5q56 0 86 -36.5t24 -96.5q-7 -60 -47 -97t-96 -37zM567 -16q-232 0 -357 138.5t-97 364.5l57 459q28 227 187 365.5t391 138.5q151 0 261 -61.5t160 -166.5t35 -235v-4q-6 -35 -39 -35h-213q-14 0 -23 5.5
t-7 11.5l2 14q11 95 -45 159t-162 64t-179 -69t-87 -179l-58 -475q-13 -109 47.5 -178.5t167.5 -69.5q104 0 172 56.5t80 156.5l12 91q0 12 -10 12h-211q-34 0 -28 35l20 168q3 34 37 34h465q34 0 31 -34l-33 -261q-29 -234 -185.5 -369.5t-390.5 -135.5z" />
    <glyph glyph-name="gdotaccent" unicode="&#x121;" horiz-adv-x="1103" 
d="M680 1176q-57 0 -88 36.5t-25 96.5q7 60 48 96.5t98 36.5t87 -36.5t23 -96.5q-6 -60 -46 -96.5t-97 -36.5zM813 1018q3 35 37 35h213q35 0 29 -35l-113 -924q-11 -95 -42 -172.5t-74 -131t-100.5 -92.5t-119 -60.5t-132 -31.5t-137 -9t-136.5 10q-28 3 -25 37l31 190
q1 17 13.5 25.5t29.5 5.5q115 -15 201.5 -3t141.5 70.5t68 163.5q2 7 -3 7q-4 0 -9 -5q-85 -82 -229 -82q-60 0 -114.5 14t-105.5 44t-87.5 85t-51.5 130q-16 87 0 243q21 162 68 261q58 125 166 200.5t239 75.5q153 0 222 -92q12 -12 16 6zM717 367q23 65 37 168
q11 102 2 163q-11 56 -49 89.5t-99 33.5q-60 0 -106 -33.5t-72 -89.5q-34 -58 -49 -166q-12 -118 4 -163q11 -55 51.5 -89t102.5 -34q64 0 109.5 33t68.5 88z" />
    <glyph glyph-name="uni0122" unicode="&#x122;" horiz-adv-x="1206" 
d="M567 -16q-232 0 -357 138.5t-97 364.5l57 459q28 227 187 365.5t391 138.5q151 0 261 -61.5t160 -166.5t35 -235v-4q-6 -35 -39 -35h-213q-14 0 -23 5.5t-7 11.5l2 14q11 95 -45 159t-162 64t-179 -69t-87 -179l-58 -475q-13 -109 47.5 -178.5t167.5 -69.5
q104 0 172 56.5t80 156.5l12 91q0 12 -10 12h-211q-34 0 -28 35l20 168q3 34 37 34h465q34 0 31 -34l-33 -261q-29 -234 -185.5 -369.5t-390.5 -135.5zM342 -377q-20 0 -25.5 11t5.5 30l120 186q16 25 43 25h201q21 0 25.5 -13t-9.5 -30l-149 -186q-20 -23 -45 -23h-166z
" />
    <glyph glyph-name="uni0123" unicode="&#x123;" horiz-adv-x="1103" 
d="M893 1432q41 0 18 -41l-120 -187q-12 -24 -41 -24h-201q-22 0 -27 13t10 30l150 186q20 23 45 23h166zM813 1018q3 35 37 35h213q35 0 29 -35l-113 -924q-11 -95 -42 -172.5t-74 -131t-100.5 -92.5t-119 -60.5t-132 -31.5t-137 -9t-136.5 10q-28 3 -25 37l31 190
q1 17 13.5 25.5t29.5 5.5q115 -15 201.5 -3t141.5 70.5t68 163.5q2 7 -3 7q-4 0 -9 -5q-85 -82 -229 -82q-60 0 -114.5 14t-105.5 44t-87.5 85t-51.5 130q-16 87 0 243q21 162 68 261q58 125 166 200.5t239 75.5q153 0 222 -92q12 -12 16 6zM717 367q23 65 37 168
q11 102 2 163q-11 56 -49 89.5t-99 33.5q-60 0 -106 -33.5t-72 -89.5q-34 -58 -49 -166q-12 -118 4 -163q11 -55 51.5 -89t102.5 -34q64 0 109.5 33t68.5 88z" />
    <glyph glyph-name="Hbar" unicode="&#x126;" horiz-adv-x="1247" 
d="M1333 1235q34 0 31 -35l-16 -127q-3 -35 -39 -35h-70q-4 0 -8 -3.5t-4 -8.5l-123 -991q-3 -35 -37 -35h-213q-35 0 -29 35l68 553q0 12 -10 12h-437q-12 0 -12 -12l-67 -553q-6 -35 -39 -35h-213q-32 0 -29 35l121 991q2 5 -1 8.5t-9 3.5h-70q-16 0 -24 9t-5 26l15 127
q6 35 39 35h69q12 0 15 12l18 152q3 35 37 35h213q34 0 28 -35l-18 -152q0 -12 10 -12h437q12 0 12 12l18 152q6 35 39 35h213q35 0 29 -35l-19 -152q0 -12 11 -12h69zM913 848q13 0 13 12l20 166q0 12 -10 12h-434q-12 0 -15 -12l-20 -166q0 -12 10 -12h436z" />
    <glyph glyph-name="hbar" unicode="&#x127;" 
d="M727 1069q159 0 243.5 -100t63.5 -273l-80 -661q-6 -35 -39 -35h-213q-31 0 -28 35l74 602q11 82 -27.5 133t-110.5 51q-74 0 -126 -50.5t-62 -133.5l-74 -602q-3 -35 -39 -35h-211q-33 0 -30 35l133 1077q0 12 -11 12h-79q-34 0 -31 35l14 105q3 34 37 34h80q11 0 14 13
l11 88q3 35 36 35h213q34 0 31 -35l-12 -88q0 -13 10 -13h254q32 0 29 -34l-13 -105q-6 -35 -39 -35h-251q-12 0 -15 -12l-18 -151q0 -19 12 -7q93 115 254 115z" />
    <glyph glyph-name="Imacron" unicode="&#x12a;" horiz-adv-x="522" 
d="M160 1589q-34 0 -31 35l16 125q3 35 37 35h518q32 0 29 -35l-14 -125q-6 -35 -39 -35h-516zM115 0q-32 0 -29 35l168 1364q3 35 37 35h213q34 0 28 -35l-165 -1364q-6 -35 -39 -35h-213z" />
    <glyph glyph-name="imacron" unicode="&#x12b;" horiz-adv-x="479" 
d="M80 1206q-32 0 -29 35l15 125q6 35 38 35h517q33 0 30 -35l-16 -125q-3 -35 -37 -35h-518zM92 0q-34 0 -31 35l121 983q6 35 39 35h213q32 0 29 -35l-121 -983q-3 -35 -39 -35h-211z" />
    <glyph glyph-name="Iogonek" unicode="&#x12e;" horiz-adv-x="579" 
d="M334 -227q36 9 39 -25v-82q-3 -33 -29 -41q-40 -13 -82.5 -17t-87.5 3t-78 39t-41 86q-16 133 133 250q7 4 5.5 9t-9.5 5h-30q-34 0 -31 35l168 1364q3 35 39 35h211q33 0 30 -35l-168 -1372q-6 -29 -28 -43q-138 -93 -129 -168q4 -30 28.5 -40.5t59.5 -2.5z" />
    <glyph glyph-name="iogonek" unicode="&#x12f;" horiz-adv-x="512" 
d="M367 1180q-57 0 -88 36.5t-25 96.5q8 60 47.5 96.5t97.5 36.5q57 0 87.5 -36.5t23.5 -96.5q-6 -60 -46 -96.5t-97 -36.5zM299 -227q39 9 39 -25v-82q0 -32 -29 -41q-39 -13 -81.5 -17t-88 3t-78.5 39t-41 86q-16 133 136 250q4 3 5 6.5t-1.5 5.5t-7.5 2h-29q-35 0 -29 35
l121 983q3 35 37 35h213q35 0 29 -35l-119 -983l-8 -35h-2q-163 -105 -154 -184q4 -29 29 -40t59 -3z" />
    <glyph glyph-name="Idotaccent" unicode="&#x130;" horiz-adv-x="522" 
d="M414 1563q-58 0 -89.5 36.5t-23.5 96.5t47.5 96.5t97.5 36.5q57 0 87.5 -36.5t23.5 -96.5q-6 -60 -46 -96.5t-97 -36.5zM115 0q-32 0 -29 35l168 1364q3 35 37 35h213q34 0 28 -35l-165 -1364q-6 -35 -39 -35h-213z" />
    <glyph glyph-name="dotlessi" unicode="&#x131;" horiz-adv-x="479" 
d="M92 0q-34 0 -31 35l121 983q6 35 39 35h213q32 0 29 -35l-121 -983q-3 -35 -39 -35h-211z" />
    <glyph glyph-name="ij" unicode="&#x133;" horiz-adv-x="989" 
d="M360 1153q-76 0 -117 47.5t-32 124.5q9 76 62 124t128 48q78 0 119.5 -47.5t32.5 -124.5q-11 -77 -64 -124.5t-129 -47.5zM846 1147q-74 0 -116.5 49.5t-33.5 122.5q9 71 66.5 120.5t126.5 49.5t114.5 -49.5t36.5 -120.5q-9 -73 -63.5 -122.5t-130.5 -49.5zM113 0
q-32 0 -29 35l121 983q3 35 37 35h213q33 0 30 -35l-120 -983q-6 -35 -39 -35h-213zM311 -418q-31 0 -28 35l20 174q6 33 41 33q111 -3 160.5 36.5t60.5 135.5l125 1022q6 35 39 35h213q35 0 29 -35l-125 -1018q-20 -165 -74.5 -254.5t-163 -128t-297.5 -35.5z" />
    <glyph glyph-name="uni0136" unicode="&#x136;" horiz-adv-x="1243" 
d="M115 0q-32 0 -29 35l168 1364q3 35 37 35h213q34 0 28 -35l-67 -559q-1 -8 3 -10t9 4l524 579q18 21 46 21h239q22 0 26.5 -12t-12.5 -31l-501 -570q-8 -8 -2 -16l364 -764q8 -17 0.5 -29t-26.5 -12h-240q-27 0 -39 23l-274 581q-3 6 -8.5 6t-10.5 -6l-141 -160
q-7 -10 -8 -14l-47 -395q-6 -35 -39 -35h-213zM354 -360q-19 0 -24 11t6 30l121 186q15 24 43 24h200q20 0 25 -13t-8 -30l-150 -186q-19 -22 -45 -22h-168z" />
    <glyph glyph-name="uni0137" unicode="&#x137;" horiz-adv-x="1058" 
d="M98 0q-33 0 -30 35l168 1364q3 35 36 35h213q34 0 31 -35l-84 -676q0 -8 4 -9t10 5l302 313q24 21 45 21h239q22 0 28 -12t-9 -31l-285 -316q-4 -4 -4 -16l215 -637q5 -18 -4 -29.5t-27 -11.5h-225q-28 0 -37 27l-135 469q-3 13 -14 2l-144 -162q-8 -12 -8 -14l-35 -287
q-3 -35 -39 -35h-211zM283 -360q-19 0 -24 11t5 30l121 186q15 24 43 24h201q20 0 25 -13t-9 -30l-149 -186q-19 -22 -45 -22h-168z" />
    <glyph glyph-name="Lacute" unicode="&#x139;" horiz-adv-x="1136" 
d="M313 1556q-19 0 -24 11t6 30l121 187q15 24 43 24h200q20 0 25 -13t-8 -30l-150 -186q-20 -23 -45 -23h-168zM115 0q-32 0 -29 35l168 1364q3 35 37 35h213q34 0 28 -35l-139 -1139q0 -12 10 -12h639q32 0 29 -35l-22 -178q-3 -35 -37 -35h-897z" />
    <glyph glyph-name="lacute" unicode="&#x13a;" horiz-adv-x="495" 
d="M303 1556q-20 0 -25.5 11t5.5 30l120 187q15 24 43 24h201q21 0 26 -13t-9 -30l-150 -186q-20 -23 -45 -23h-166zM100 0q-31 0 -28 35l168 1364q3 35 36 35h213q34 0 31 -35l-168 -1364q-6 -35 -39 -35h-213z" />
    <glyph glyph-name="uni013B" unicode="&#x13b;" horiz-adv-x="1136" 
d="M115 0q-32 0 -29 35l168 1364q3 35 37 35h213q34 0 28 -35l-139 -1139q0 -12 10 -12h639q32 0 29 -35l-22 -178q-3 -35 -37 -35h-897zM289 -360q-19 0 -24 11t5 30l121 186q15 24 43 24h201q20 0 25 -13t-9 -30l-149 -186q-19 -22 -45 -22h-168z" />
    <glyph glyph-name="uni013C" unicode="&#x13c;" horiz-adv-x="497" 
d="M100 0q-31 0 -28 35l168 1364q3 35 36 35h213q34 0 31 -35l-168 -1364q-6 -35 -39 -35h-213zM-55 -360q-20 0 -26 11t5 30l121 186q15 24 43 24h201q21 0 25.5 -13t-9.5 -30l-149 -186q-19 -22 -45 -22h-166z" />
    <glyph glyph-name="Lcaron" unicode="&#x13d;" horiz-adv-x="1136" 
d="M287 1534q-24 0 -37 22l-100 195q-8 17 -1 30t27 13h143q24 0 37 -22l60 -117q2 -6 7 -6t9 6l88 117q16 22 41 22h141q21 0 26 -13t-9 -30l-152 -195q-19 -22 -43 -22h-237zM115 0q-32 0 -29 35l168 1364q3 35 37 35h213q34 0 28 -35l-139 -1139q0 -12 10 -12h639
q32 0 29 -35l-22 -178q-3 -35 -37 -35h-897z" />
    <glyph glyph-name="lcaron" unicode="&#x13e;" horiz-adv-x="495" 
d="M276 1534q-23 0 -36 22l-103 195q-8 17 -0.5 30t27.5 13h143q24 0 37 -22l59 -117q3 -6 8.5 -6t8.5 6l88 117q19 22 43 22h139q22 0 27.5 -13t-8.5 -30l-154 -195q-19 -22 -43 -22h-236zM100 0q-31 0 -28 35l168 1364q3 35 36 35h213q34 0 31 -35l-168 -1364
q-6 -35 -39 -35h-213z" />
    <glyph glyph-name="Lslash" unicode="&#x141;" horiz-adv-x="1136" 
d="M393 260q0 -12 10 -12h639q32 0 29 -35l-22 -178q-3 -35 -37 -35h-897q-32 0 -29 35l43 358q2 8 -2 11t-10 -3l-154 -118q-29 -23 -47 4l-80 112q-19 28 10 50l314 243q8 5 8 15l86 692q3 35 37 35h213q34 0 28 -35l-53 -438q0 -8 3.5 -11t9.5 2l391 303q31 24 47 -4
l82 -114q18 -27 -11 -50l-552 -428q-7 -7 -9 -14z" />
    <glyph glyph-name="lslash" unicode="&#x142;" horiz-adv-x="495" 
d="M735 856q9 -32 -20 -47l-279 -147q-8 -3 -8 -15l-76 -612q-6 -35 -39 -35h-213q-31 0 -28 35l55 446q0 14 -12 8l-99 -51q-14 -7 -26.5 -3t-18.5 18l-47 122q-13 29 19 48l207 112q10 3 10 15l80 649q3 35 36 35h213q34 0 31 -35l-59 -481q-2 -7 1.5 -10t10.5 1l164 88
q15 9 26.5 5t16.5 -19z" />
    <glyph glyph-name="Nacute" unicode="&#x143;" horiz-adv-x="1306" 
d="M696 1583q-19 0 -24 11t6 30l121 186q16 25 43 25h200q20 0 25 -13t-8 -30l-150 -186q-20 -23 -45 -23h-168zM115 0q-32 0 -29 35l168 1364q3 35 37 35h205q24 0 36 -23l394 -852q3 -8 8 -6.5t6 10.5l102 836q3 35 37 35h209q34 0 31 -35l-168 -1364q-6 -35 -39 -35h-203
q-25 0 -37 25l-393 860q-3 8 -8 6.5t-6 -10.5l-100 -846q-6 -35 -39 -35h-211z" />
    <glyph glyph-name="nacute" unicode="&#x144;" 
d="M907 1427q20 0 25 -13t-8 -30l-152 -186q-16 -22 -43 -22h-168q-19 0 -24 11t6 30l121 186q15 24 43 24h200zM727 1069q159 0 243.5 -100t63.5 -273l-80 -661q-6 -35 -39 -35h-213q-31 0 -28 35l74 602q11 82 -27.5 133t-110.5 51q-74 0 -126 -50.5t-62 -133.5l-74 -602
q-3 -35 -39 -35h-211q-33 0 -30 35l120 983q3 35 39 35h211q34 0 31 -35l-8 -57q0 -19 12 -7q93 115 254 115z" />
    <glyph glyph-name="uni0145" unicode="&#x145;" horiz-adv-x="1306" 
d="M115 0q-32 0 -29 35l168 1364q3 35 37 35h205q24 0 36 -23l394 -852q3 -8 8 -6.5t6 10.5l102 836q3 35 37 35h209q34 0 31 -35l-168 -1364q-6 -35 -39 -35h-203q-25 0 -37 25l-393 860q-3 8 -8 6.5t-6 -10.5l-100 -846q-6 -35 -39 -35h-211zM428 -360q-19 0 -24 11t6 30
l120 186q15 24 43 24h201q20 0 25 -13t-8 -30l-152 -186q-16 -22 -43 -22h-168z" />
    <glyph glyph-name="uni0146" unicode="&#x146;" 
d="M727 1069q159 0 243.5 -100t63.5 -273l-80 -661q-6 -35 -39 -35h-213q-31 0 -28 35l74 602q11 82 -27.5 133t-110.5 51q-74 0 -126 -50.5t-62 -133.5l-74 -602q-3 -35 -39 -35h-211q-33 0 -30 35l120 983q3 35 39 35h211q34 0 31 -35l-8 -57q0 -19 12 -7q93 115 254 115z
M289 -360q-19 0 -24 11t5 30l121 186q15 24 43 24h201q20 0 25 -13t-9 -30l-149 -186q-19 -22 -45 -22h-168z" />
    <glyph glyph-name="Ncaron" unicode="&#x147;" horiz-adv-x="1306" 
d="M672 1565q-24 0 -37 22l-103 197q-8 17 -0.5 30t27.5 13h143q24 0 37 -23l60 -116q3 -6 8 -6t8 6l88 116q20 23 43 23h141q20 0 25 -13t-8 -30l-154 -197q-19 -22 -43 -22h-235zM115 0q-32 0 -29 35l168 1364q3 35 37 35h205q24 0 36 -23l394 -852q3 -8 8 -6.5t6 10.5
l102 836q3 35 37 35h209q34 0 31 -35l-168 -1364q-6 -35 -39 -35h-203q-25 0 -37 25l-393 860q-3 8 -8 6.5t-6 -10.5l-100 -846q-6 -35 -39 -35h-211z" />
    <glyph glyph-name="ncaron" unicode="&#x148;" 
d="M815 1180q-20 -23 -43 -23h-237q-24 0 -37 23l-101 196q-8 17 -0.5 30t27.5 13h143q24 0 37 -22l60 -117q6 -13 16 0l88 117q16 22 41 22h141q22 0 27 -13t-10 -30zM727 1069q159 0 243.5 -100t63.5 -273l-80 -661q-6 -35 -39 -35h-213q-31 0 -28 35l74 602
q11 82 -27.5 133t-110.5 51q-74 0 -126 -50.5t-62 -133.5l-74 -602q-3 -35 -39 -35h-211q-33 0 -30 35l120 983q3 35 39 35h211q34 0 31 -35l-8 -57q0 -19 12 -7q93 115 254 115z" />
    <glyph glyph-name="Eng" unicode="&#x14a;" horiz-adv-x="1320" 
d="M1282 1106q0 -8 6 -14q4 -14 2 -31l-125 -1020q-20 -164 -71.5 -252.5t-156.5 -127.5t-292 -36q-35 0 -29 35l21 172q3 33 41 33q94 -3 139.5 28.5t63.5 106.5q0 3 -1 8.5t-1 7.5l-400 869q-3 8 -8 6.5t-6 -10.5l-100 -846q-6 -35 -39 -35h-211q-32 0 -29 35l168 1364
q3 35 37 35h205q24 0 36 -23l394 -852q3 -8 8 -6.5t6 10.5l102 836q3 35 37 35h209q34 0 31 -35z" />
    <glyph glyph-name="eng" unicode="&#x14b;" horiz-adv-x="1089" 
d="M1006 451q-3 -13 2 -13h2l-52 -409q-11 -92 -29 -155t-51.5 -115.5t-86 -82.5t-129.5 -46.5t-185 -18.5q-36 0 -33 35l21 161q2 15 12 25.5t27 11.5q76 6 115.5 39.5t54.5 104.5q3 12 0 12h-4l78 637q11 82 -27.5 133t-110.5 51q-74 0 -126 -50.5t-62 -133.5l-74 -602
q-3 -35 -39 -35h-211q-33 0 -30 35l120 983q3 35 39 35h211q34 0 31 -35l-8 -57q0 -8 4 -10t10 5q94 113 252 113q159 0 243.5 -100t63.5 -273z" />
    <glyph glyph-name="Omacron" unicode="&#x14c;" horiz-adv-x="1232" 
d="M512 1581q-35 0 -29 35l15 125q3 35 39 35h516q34 0 28 -35l-14 -125q-6 -35 -39 -35h-516zM573 -23q-235 0 -361 144t-97 377l53 438q29 231 190.5 372.5t395.5 141.5q236 0 362.5 -142t97.5 -372l-53 -438q-28 -233 -190 -377t-398 -144zM604 225q110 0 186 72t91 190
l55 451q13 120 -45 192t-168 72q-108 0 -183.5 -72.5t-90.5 -191.5l-56 -451q-13 -118 44.5 -190t166.5 -72z" />
    <glyph glyph-name="omacron" unicode="&#x14d;" horiz-adv-x="1105" 
d="M401 1200q-34 0 -28 35l14 125q6 35 39 35h516q35 0 29 -35l-15 -125q-3 -35 -38 -35h-517zM514 -16q-168 0 -276.5 89.5t-133.5 245.5q-15 90 -2 209q17 130 58 217q63 152 192 238t297 86q163 0 268.5 -85.5t133.5 -235.5q19 -101 4 -216q-11 -100 -51 -206
q-65 -159 -194.5 -250.5t-295.5 -91.5zM545 231q64 0 114 41t80 113q23 59 33 143q10 95 2 146q-11 70 -52.5 108.5t-109.5 38.5q-65 0 -115.5 -39t-78.5 -108q-24 -63 -33 -146q-10 -91 -2 -143q11 -72 52 -113t110 -41z" />
    <glyph glyph-name="Ohungarumlaut" unicode="&#x150;" horiz-adv-x="1232" 
d="M518 1569q-19 0 -24 11t4 30l106 184q17 27 43 27h182q20 0 25 -12t-6 -29l-119 -187q-12 -24 -41 -24h-170zM874 1569q-20 0 -25 12t7 29l117 186q16 25 43 25h170q19 0 24 -11t-6 -30l-121 -187q-15 -24 -43 -24h-166zM573 -23q-235 0 -361 144t-97 377l53 438
q29 231 190.5 372.5t395.5 141.5q236 0 362.5 -142t97.5 -372l-53 -438q-28 -233 -190 -377t-398 -144zM604 225q110 0 186 72t91 190l55 451q13 120 -45 192t-168 72q-108 0 -183.5 -72.5t-90.5 -191.5l-56 -451q-13 -118 44.5 -190t166.5 -72z" />
    <glyph glyph-name="ohungarumlaut" unicode="&#x151;" horiz-adv-x="1105" 
d="M408 1188q-19 0 -24.5 11t3.5 30l107 184q17 27 43 27h182q20 0 24.5 -12t-6.5 -29l-116 -187q-15 -24 -43 -24h-170zM764 1188q-20 0 -25 12t6 29l117 186q16 25 43 25h170q19 0 24 -11t-5 -30l-121 -187q-15 -24 -43 -24h-166zM514 -16q-168 0 -276.5 89.5
t-133.5 245.5q-15 90 -2 209q17 130 58 217q63 152 192 238t297 86q163 0 268.5 -85.5t133.5 -235.5q19 -101 4 -216q-11 -100 -51 -206q-65 -159 -194.5 -250.5t-295.5 -91.5zM545 231q64 0 114 41t80 113q23 59 33 143q10 95 2 146q-11 70 -52.5 108.5t-109.5 38.5
q-65 0 -115.5 -39t-78.5 -108q-24 -63 -33 -146q-10 -91 -2 -143q11 -72 52 -113t110 -41z" />
    <glyph glyph-name="OE" unicode="&#x152;" horiz-adv-x="1847" 
d="M1884 1221q-3 -35 -39 -35h-608q-11 0 -14 -12l-39 -314q0 -12 10 -12h387q32 0 29 -35l-23 -178q-3 -35 -37 -35h-385q-14 0 -14 -12l-41 -328q0 -12 10 -12h611q33 0 30 -35l-22 -178q-3 -35 -39 -35h-869q-31 0 -28 35l4 31q0 16 -14 8q-143 -97 -304 -97
q-184 0 -293.5 143t-82.5 365l57 461q27 220 172 362t328 142q163 0 280 -94q13 -10 17 8l4 35q3 35 37 35h868q34 0 31 -35zM592 225q105 0 178.5 70.5t87.5 181.5l57 473q14 111 -42 181.5t-160 70.5q-102 0 -175 -70.5t-87 -181.5l-58 -473q-14 -111 41.5 -181.5
t157.5 -70.5z" />
    <glyph glyph-name="oe" unicode="&#x153;" horiz-adv-x="1732" 
d="M1241 225q45 0 96.5 23.5t89.5 62.5q26 29 46 6l110 -106q25 -25 0 -49q-158 -178 -407 -178q-206 0 -324 147q-5 8 -16 0q-154 -147 -340 -147q-151 0 -256 82.5t-136 222.5q-18 96 -2 241q17 138 62 240q63 137 188.5 218t278.5 81q187 0 303 -145q7 -7 16 0
q152 145 338 145q156 0 263.5 -84.5t134.5 -218.5q21 -82 -5 -303q-3 -37 -36 -37h-596q-7 0 -10.5 -3t-2.5 -9q0 -33 6 -54q22 -135 199 -135zM700 360q27 52 43 170q12 111 -2 164q-9 59 -46 93t-95 34t-103.5 -34t-72.5 -93q-26 -57 -39 -164q-12 -109 0 -170
q9 -59 46 -94t95 -35q57 0 102.5 35t71.5 94zM1262 821q-62 0 -108.5 -35t-72.5 -94q-8 -19 -18 -57q-3 -12 10 -12h330q12 0 12 12q3 30 -4 57q-9 59 -48 94t-101 35z" />
    <glyph glyph-name="Racute" unicode="&#x154;" horiz-adv-x="1220" 
d="M967 1808q21 0 25.5 -13t-9.5 -30l-149 -186q-20 -23 -46 -23h-165q-20 0 -25.5 11t6.5 30l119 187q15 24 43 24h201zM852 0q-27 0 -37 27l-176 557q0 10 -12 10h-181q-11 0 -14 -12l-65 -547q-6 -35 -39 -35h-213q-32 0 -29 35l168 1366q3 35 37 35h559q192 0 294 -119
t79 -313q-19 -139 -98.5 -239.5t-202.5 -141.5q-6 -2 -9 -7.5t0 -9.5l193 -565q6 -17 -2 -29t-27 -12h-225zM518 1186q-12 0 -12 -12l-43 -345q0 -12 10 -12h258q85 0 144 50t69 132q9 83 -37 135t-129 52h-260z" />
    <glyph glyph-name="racute" unicode="&#x155;" horiz-adv-x="761" 
d="M780 1436q21 0 26 -13t-9 -30l-150 -187q-19 -22 -45 -22h-166q-20 0 -25.5 11t5.5 30l121 186q16 25 43 25h200zM702 1067q62 0 103 -25q23 -10 12 -43l-63 -215q-4 -18 -13 -21.5t-28 -0.5q-44 13 -105 4q-72 -6 -127.5 -54.5t-64.5 -127.5l-68 -549q-3 -35 -39 -35
h-211q-33 0 -30 35l120 983q3 35 39 35h211q34 0 31 -35l-8 -64q-2 -8 2 -10t10 4q94 119 229 119z" />
    <glyph glyph-name="uni0156" unicode="&#x156;" horiz-adv-x="1220" 
d="M922 623q-6 -2 -9 -7.5t0 -9.5l193 -565q6 -17 -2 -29t-27 -12h-225q-27 0 -37 27l-176 557q0 10 -12 10h-181q-11 0 -14 -12l-65 -547q-6 -35 -39 -35h-213q-32 0 -29 35l168 1366q3 35 37 35h559q192 0 294 -119t79 -313q-19 -139 -98.5 -239.5t-202.5 -141.5z
M518 1186q-12 0 -12 -12l-43 -345q0 -12 10 -12h258q85 0 144 50t69 132q9 83 -37 135t-129 52h-260zM332 -360q-20 0 -25.5 11t6.5 30l119 186q15 24 43 24h201q21 0 25.5 -13t-9.5 -30l-149 -186q-19 -22 -45 -22h-166z" />
    <glyph glyph-name="uni0157" unicode="&#x157;" horiz-adv-x="768" 
d="M702 1067q62 0 103 -25q23 -10 12 -43l-63 -215q-4 -18 -13 -21.5t-28 -0.5q-44 13 -105 4q-72 -6 -127.5 -54.5t-64.5 -127.5l-68 -549q-3 -35 -39 -35h-211q-33 0 -30 35l120 983q3 35 39 35h211q34 0 31 -35l-8 -64q-2 -8 2 -10t10 4q94 119 229 119zM-70 -360
q-20 0 -25 11t7 30l119 186q15 24 43 24h200q21 0 26 -13t-9 -30l-150 -186q-19 -22 -45 -22h-166z" />
    <glyph glyph-name="Rcaron" unicode="&#x158;" horiz-adv-x="1220" 
d="M874 1561q-16 -23 -43 -23h-235q-24 0 -37 23l-100 196q-10 17 -2.5 30t28.5 13h144q24 0 37 -22l59 -117q1 -6 6 -6t8 6l88 117q19 22 43 22h142q21 0 25.5 -13t-9.5 -30zM852 0q-27 0 -37 27l-176 557q0 10 -12 10h-181q-11 0 -14 -12l-65 -547q-6 -35 -39 -35h-213
q-32 0 -29 35l168 1366q3 35 37 35h559q192 0 294 -119t79 -313q-19 -139 -98.5 -239.5t-202.5 -141.5q-6 -2 -9 -7.5t0 -9.5l193 -565q6 -17 -2 -29t-27 -12h-225zM518 1186q-12 0 -12 -12l-43 -345q0 -12 10 -12h258q85 0 144 50t69 132q9 83 -37 135t-129 52h-260z" />
    <glyph glyph-name="rcaron" unicode="&#x159;" horiz-adv-x="761" 
d="M688 1188q-20 -23 -43 -23h-235q-24 0 -37 23l-103 196q-8 17 0 30t29 13h143q24 0 37 -22l60 -117q1 -6 6 -6t8 6l88 117q19 22 43 22h141q20 0 25 -13t-8 -30zM702 1067q62 0 103 -25q23 -10 12 -43l-63 -215q-4 -18 -13 -21.5t-28 -0.5q-44 13 -105 4
q-72 -6 -127.5 -54.5t-64.5 -127.5l-68 -549q-3 -35 -39 -35h-211q-33 0 -30 35l120 983q3 35 39 35h211q34 0 31 -35l-8 -64q-2 -8 2 -10t10 4q94 119 229 119z" />
    <glyph glyph-name="Sacute" unicode="&#x15a;" horiz-adv-x="1175" 
d="M637 1573q-20 0 -26 11t5 30l121 186q16 25 43 25h201q21 0 25.5 -13t-9.5 -30l-149 -187q-19 -22 -45 -22h-166zM551 -16q-235 0 -361.5 116.5t-103.5 311.5l4 34q6 35 39 35h209q15 0 23.5 -7t7.5 -19l-4 -29q-9 -81 56 -138t181 -57q106 0 162.5 46t64.5 114
q6 49 -27.5 86.5t-76.5 58.5t-153 65q-5 2 -7 3q-52 19 -87 33.5t-82.5 38.5t-79 47.5t-64.5 57.5t-50.5 71t-26 86.5t-1.5 105.5q23 187 170.5 296.5t364.5 109.5q230 0 361 -121.5t108 -318.5l-4 -21q-3 -35 -37 -35h-209q-34 0 -31 21l2 20q10 85 -50.5 146t-180.5 61
q-95 0 -151.5 -40.5t-65.5 -112.5q-4 -32 5 -57t26.5 -44t56.5 -40.5t79.5 -38.5t112.5 -44q143 -56 193 -84q169 -94 187 -248q5 -44 -1 -94q-23 -188 -175 -301.5t-384 -113.5z" />
    <glyph glyph-name="sacute" unicode="&#x15b;" horiz-adv-x="999" 
d="M508 1190q-20 0 -25.5 11t6.5 30l119 186q16 25 43 25h201q21 0 25.5 -13t-9.5 -30l-149 -187q-19 -22 -45 -22h-166zM469 -14q-200 0 -309 85t-92 220l2 10q3 35 36 35h201q33 0 33 -12l-2 -15q-6 -45 38 -76.5t118 -31.5q68 0 112 27t49 69q4 37 -30.5 56.5t-118 41.5
t-131.5 43q-45 16 -78 31.5t-69 41.5t-57.5 55.5t-33 73.5t-4.5 97q19 152 144.5 241t312.5 89q191 0 296.5 -92.5t88.5 -239.5q-2 -11 -12 -17.5t-25 -6.5h-195q-35 0 -32 12l2 12q5 46 -35 76.5t-113 30.5q-67 0 -112.5 -24.5t-51.5 -67.5q-2 -20 7.5 -35.5t26.5 -25.5
t45.5 -20t55.5 -17t66.5 -17.5t69.5 -20.5q51 -16 89 -32t77 -42t62 -57t35 -76t5 -100q-20 -152 -147.5 -236.5t-323.5 -84.5z" />
    <glyph glyph-name="Scedilla" unicode="&#x15e;" horiz-adv-x="1175" 
d="M1110 399q-20 -163 -138 -271t-306 -136q-18 -4 -7 -15q97 -109 52 -227q-21 -54 -61.5 -86t-88 -38.5t-89.5 -2.5t-77 17q-28 8 -18 41l18 81q12 34 45 25q34 -8 61.5 3t37.5 40q26 66 -70 152q-6 6 -14 6q-192 25 -291.5 137.5t-77.5 286.5l4 34q6 35 39 35h209
q15 0 23.5 -7t7.5 -19l-4 -29q-9 -81 56 -138t181 -57q106 0 162.5 46t64.5 114q6 49 -27.5 86.5t-76.5 58.5t-153 65q-5 2 -7 3q-52 19 -87 33.5t-82.5 38.5t-79 47.5t-64.5 57.5t-50.5 71t-26 86.5t-1.5 105.5q23 187 170.5 296.5t364.5 109.5q230 0 361 -121.5
t108 -318.5l-4 -21q-3 -35 -37 -35h-209q-34 0 -31 21l2 20q10 85 -50.5 146t-180.5 61q-95 0 -151.5 -40.5t-65.5 -112.5q-4 -32 5 -57t26.5 -44t56.5 -40.5t79.5 -38.5t112.5 -44q143 -56 193 -84q169 -94 187 -248q5 -44 -1 -94z" />
    <glyph glyph-name="scedilla" unicode="&#x15f;" horiz-adv-x="999" 
d="M940 307q-17 -127 -110 -208t-240 -105q-8 0 -10 -5t4 -9q94 -110 49 -228q-21 -54 -61.5 -86t-87.5 -38.5t-89 -2.5t-78 17q-25 8 -18 41l20 81q9 34 43 25q34 -8 61.5 2.5t39.5 40.5q24 66 -72 152q-6 6 -12 6q-159 20 -242.5 101t-68.5 200l2 10q3 35 36 35h201
q33 0 33 -12l-2 -15q-6 -45 38 -76.5t118 -31.5q68 0 112 27t49 69q4 37 -30.5 56.5t-118 41.5t-131.5 43q-45 16 -78 31.5t-69 41.5t-57.5 55.5t-33 73.5t-4.5 97q19 152 144.5 241t312.5 89q191 0 296.5 -92.5t88.5 -239.5q-2 -11 -12 -17.5t-25 -6.5h-195q-35 0 -32 12
l2 12q5 46 -35 76.5t-113 30.5q-67 0 -112.5 -24.5t-51.5 -67.5q-2 -20 7.5 -35.5t26.5 -25.5t45.5 -20t55.5 -17t66.5 -17.5t69.5 -20.5q51 -16 89 -32t77 -42t62 -57t35 -76t5 -100z" />
    <glyph glyph-name="Scaron" unicode="&#x160;" horiz-adv-x="1175" 
d="M610 1554q-24 0 -37 23l-102 197q-8 17 0 30t29 13h143q24 0 37 -23l59 -117q1 -6 6.5 -6t8.5 6l88 117q20 23 43 23h141q20 0 25 -13t-9 -30l-153 -197q-20 -23 -43 -23h-236zM551 -16q-235 0 -361.5 116.5t-103.5 311.5l4 34q6 35 39 35h209q15 0 23.5 -7t7.5 -19
l-4 -29q-9 -81 56 -138t181 -57q106 0 162.5 46t64.5 114q6 49 -27.5 86.5t-76.5 58.5t-153 65q-5 2 -7 3q-52 19 -87 33.5t-82.5 38.5t-79 47.5t-64.5 57.5t-50.5 71t-26 86.5t-1.5 105.5q23 187 170.5 296.5t364.5 109.5q230 0 361 -121.5t108 -318.5l-4 -21
q-3 -35 -37 -35h-209q-34 0 -31 21l2 20q10 85 -50.5 146t-180.5 61q-95 0 -151.5 -40.5t-65.5 -112.5q-4 -32 5 -57t26.5 -44t56.5 -40.5t79.5 -38.5t112.5 -44q143 -56 193 -84q169 -94 187 -248q5 -44 -1 -94q-23 -188 -175 -301.5t-384 -113.5z" />
    <glyph glyph-name="scaron" unicode="&#x161;" horiz-adv-x="999" 
d="M481 1171q-24 0 -37 23l-100 197q-9 17 -1.5 30t28.5 13h143q24 0 37 -23l59 -117q2 -6 7 -6t10 6l86 117q20 23 43 23h141q21 0 25.5 -13t-9.5 -30l-153 -197q-16 -23 -41 -23h-238zM469 -14q-200 0 -309 85t-92 220l2 10q3 35 36 35h201q33 0 33 -12l-2 -15
q-6 -45 38 -76.5t118 -31.5q68 0 112 27t49 69q4 37 -30.5 56.5t-118 41.5t-131.5 43q-45 16 -78 31.5t-69 41.5t-57.5 55.5t-33 73.5t-4.5 97q19 152 144.5 241t312.5 89q191 0 296.5 -92.5t88.5 -239.5q-2 -11 -12 -17.5t-25 -6.5h-195q-35 0 -32 12l2 12q5 46 -35 76.5
t-113 30.5q-67 0 -112.5 -24.5t-51.5 -67.5q-2 -20 7.5 -35.5t26.5 -25.5t45.5 -20t55.5 -17t66.5 -17.5t69.5 -20.5q51 -16 89 -32t77 -42t62 -57t35 -76t5 -100q-20 -152 -147.5 -236.5t-323.5 -84.5z" />
    <glyph glyph-name="uni0162" unicode="&#x162;" horiz-adv-x="1161" 
d="M834 1184q-12 0 -15 -13l-139 -1136q-3 -35 -21 -35q-13 0 -2 -14q85 -107 43 -219q-21 -54 -61 -86t-87 -39t-89 -3t-78 17q-25 8 -18 41l18 82q11 33 45 24q34 -8 61 2.5t39 40.5q23 66 -65 148q-6 6 -14 6h-21q-34 0 -31 35l140 1136q3 13 -11 13h-333q-16 0 -24 9
t-5 26l22 180q3 35 37 35h981q34 0 31 -35l-23 -180q-3 -35 -38 -35h-342z" />
    <glyph glyph-name="uni0163" unicode="&#x163;" horiz-adv-x="755" 
d="M555 1065q0 -12 12 -12h178q16 0 24 -9t5 -26l-18 -162q-6 -35 -39 -35h-178q-12 0 -15 -12l-51 -424q-9 -67 14 -99t82 -32h56q33 0 30 -35l-22 -176q-1 -15 -11.5 -25t-25.5 -12q-78 -4 -111 -4q-81 0 -136 11.5t-97 40.5t-57.5 83t-6.5 135l66 537q3 12 -10 12h-101
q-33 0 -30 35l20 162q3 35 37 35h102q12 0 15 12l26 231q6 35 39 35h203q35 0 29 -35zM483 -109q24 0 41 -14q122 -119 72 -250q-21 -54 -61 -86t-87 -38.5t-89 -2.5t-78 17q-25 9 -19 41l19 82q11 33 45 24q34 -8 61 2.5t37 40.5q23 61 -59 143q-16 15 -11 28t29 13h100z
" />
    <glyph glyph-name="Tcaron" unicode="&#x164;" horiz-adv-x="1161" 
d="M885 1556q-19 -22 -43 -22h-236q-24 0 -37 22l-102 195q-8 17 -0.5 30t27.5 13h143q24 0 37 -22l59 -117q3 -6 8.5 -6t8.5 6l88 117q19 22 43 22h139q22 0 27 -13t-9 -30zM1206 1434q34 0 31 -35l-23 -180q-3 -35 -38 -35h-342q-12 0 -15 -13l-139 -1136q-3 -35 -39 -35
h-211q-34 0 -31 35l140 1136q3 13 -11 13h-333q-16 0 -24 9t-5 26l22 180q3 35 37 35h981z" />
    <glyph glyph-name="tcaron" unicode="&#x165;" horiz-adv-x="755" 
d="M631 1454q-16 -22 -41 -22h-238q-24 0 -37 22l-100 195q-9 17 -1.5 30t28.5 13h143q24 0 37 -23l59 -117q1 -6 6.5 -6t8.5 6l88 117q20 23 43 23h141q21 0 25.5 -13t-9.5 -30zM756 856q-6 -35 -39 -35h-178q-12 0 -15 -12l-51 -424q-9 -67 14 -99t82 -32h56q33 0 30 -35
l-22 -176q-1 -15 -11.5 -25t-25.5 -12q-78 -4 -111 -4q-81 0 -136 11.5t-97 40.5t-57.5 83t-6.5 135l66 537q3 12 -10 12h-101q-33 0 -30 35l20 162q3 35 37 35h102q12 0 15 12l26 231q6 35 39 35h203q35 0 29 -35l-29 -231q0 -12 12 -12h178q16 0 24 -9t5 -26z" />
    <glyph glyph-name="Tbar" unicode="&#x166;" horiz-adv-x="1191" 
d="M1214 1219q-3 -35 -38 -35h-342q-12 0 -15 -13l-39 -319q-3 -12 11 -12h176q33 0 30 -35l-14 -105q-3 -34 -37 -34h-176q-14 0 -14 -13l-76 -618q-3 -35 -39 -35h-211q-34 0 -31 35l76 618q2 5 -1 9t-9 4h-156q-31 0 -28 34l12 105q6 35 39 35h155q13 0 13 12l39 319
q3 13 -11 13h-333q-16 0 -24 9t-5 26l22 180q3 35 37 35h981q34 0 31 -35z" />
    <glyph glyph-name="tbar" unicode="&#x167;" horiz-adv-x="1191" 
d="M756 856q-6 -35 -39 -35h-178q-12 0 -15 -12l-10 -84q0 -12 10 -12h174q32 0 29 -35l-12 -105q-6 -34 -39 -34h-172q-12 0 -15 -13l-16 -141q-9 -67 14 -99t82 -32h56q33 0 30 -35l-22 -176q-1 -15 -11.5 -25t-25.5 -12q-78 -4 -111 -4q-81 0 -136 11.5t-97 40.5
t-57.5 83t-6.5 135l31 254q3 13 -10 13h-96q-34 0 -31 34l12 105q6 35 39 35h98q13 0 13 12l10 84q3 12 -10 12h-101q-33 0 -30 35l20 162q3 35 37 35h102q12 0 15 12l26 231q6 35 39 35h203q35 0 29 -35l-29 -231q0 -12 12 -12h178q16 0 24 -9t5 -26z" />
    <glyph glyph-name="Umacron" unicode="&#x16a;" horiz-adv-x="1249" 
d="M522 1591q-31 0 -28 35l16 125q3 35 37 35h516q34 0 31 -35l-17 -125q-3 -35 -37 -35h-518zM584 -16q-230 0 -355.5 135t-99.5 356l115 924q3 35 37 35h213q33 0 30 -35l-114 -926q-14 -108 42.5 -175t161.5 -67t178 67t87 175l112 926q6 35 39 35h213q35 0 29 -35
l-113 -924q-28 -221 -185.5 -356t-389.5 -135z" />
    <glyph glyph-name="umacron" unicode="&#x16b;" horiz-adv-x="1083" 
d="M924 1378q33 0 30 -35l-16 -124q-3 -35 -37 -35h-518q-32 0 -29 35l15 124q6 35 39 35h516zM784 1018q3 35 39 35h211q34 0 31 -35l-121 -983q-3 -35 -39 -35h-211q-33 0 -30 35l6 55q1 7 -3.5 8.5t-9.5 -4.5q-91 -108 -258 -108q-151 0 -236.5 93.5t-64.5 264.5l82 674
q6 35 39 35h211q32 0 29 -35l-74 -602q-11 -83 26 -134t111 -51q68 0 117.5 41.5t67.5 110.5z" />
    <glyph glyph-name="Uring" unicode="&#x16e;" horiz-adv-x="1249" 
d="M776 1554q-93 0 -149 66t-45 162q12 96 84.5 161.5t167.5 65.5q92 0 148.5 -66t45.5 -161q-12 -95 -86 -161.5t-166 -66.5zM793 1686q38 0 69 28t37 68q4 42 -19.5 70t-62.5 28q-40 0 -71 -28t-37 -70q-5 -40 19.5 -68t64.5 -28zM584 -16q-230 0 -355.5 135t-99.5 356
l115 924q3 35 37 35h213q33 0 30 -35l-114 -926q-14 -108 42.5 -175t161.5 -67t178 67t87 175l112 926q6 35 39 35h213q35 0 29 -35l-113 -924q-28 -221 -185.5 -356t-389.5 -135z" />
    <glyph glyph-name="uring" unicode="&#x16f;" horiz-adv-x="1083" 
d="M637 1147q-93 0 -149.5 65.5t-45.5 161.5q12 96 84.5 162t167.5 66q92 0 149 -66.5t46 -161.5q-12 -95 -85.5 -161t-166.5 -66zM678 1473q-40 0 -71.5 -28.5t-37.5 -70.5q-5 -40 19.5 -68t64.5 -28q38 0 69.5 28t35.5 68q6 42 -17.5 70.5t-62.5 28.5zM784 1018
q3 35 39 35h211q34 0 31 -35l-121 -983q-3 -35 -39 -35h-211q-33 0 -30 35l6 55q1 7 -3.5 8.5t-9.5 -4.5q-91 -108 -258 -108q-151 0 -236.5 93.5t-64.5 264.5l82 674q6 35 39 35h211q32 0 29 -35l-74 -602q-11 -83 26 -134t111 -51q68 0 117.5 41.5t67.5 110.5z" />
    <glyph glyph-name="Uhungarumlaut" unicode="&#x170;" horiz-adv-x="1249" 
d="M530 1579q-20 0 -25.5 11t3.5 30l106 184q17 27 43 27h183q20 0 25.5 -12t-5.5 -29l-119 -186q-16 -25 -43 -25h-168zM885 1579q-19 0 -24.5 12t5.5 29l119 186q16 25 43 25h168q20 0 25 -11t-7 -30l-118 -186q-16 -25 -43 -25h-168zM584 -16q-230 0 -355.5 135
t-99.5 356l115 924q3 35 37 35h213q33 0 30 -35l-114 -926q-14 -108 42.5 -175t161.5 -67t178 67t87 175l112 926q6 35 39 35h213q35 0 29 -35l-113 -924q-28 -221 -185.5 -356t-389.5 -135z" />
    <glyph glyph-name="uhungarumlaut" unicode="&#x171;" horiz-adv-x="1083" 
d="M700 1423q20 0 26 -12t-5 -29l-119 -186q-16 -25 -43 -25h-168q-20 0 -25.5 11t3.5 30l106 185q16 26 43 26h182zM954 1196q-12 -25 -41 -25h-168q-19 0 -24 12t6 29l119 187q15 24 43 24h168q41 0 18 -41zM784 1018q3 35 39 35h211q34 0 31 -35l-121 -983
q-3 -35 -39 -35h-211q-33 0 -30 35l6 55q1 7 -3.5 8.5t-9.5 -4.5q-91 -108 -258 -108q-151 0 -236.5 93.5t-64.5 264.5l82 674q6 35 39 35h211q32 0 29 -35l-74 -602q-11 -83 26 -134t111 -51q68 0 117.5 41.5t67.5 110.5z" />
    <glyph glyph-name="Uogonek" unicode="&#x172;" horiz-adv-x="1249" 
d="M991 1399q6 35 39 35h213q35 0 29 -35l-113 -924q-25 -201 -160 -332.5t-337 -154.5q-9 0 -15 -6q-94 -78 -88 -138q4 -30 28.5 -40.5t59.5 -2.5q36 9 39 -24v-82q0 -32 -29 -41q-40 -13 -82.5 -17t-87.5 2.5t-77.5 38.5t-40.5 86q-13 117 94 216q5 4 4 9t-8 5
q-174 35 -263.5 164t-66.5 317l115 924q3 35 37 35h213q33 0 30 -35l-114 -926q-14 -108 42.5 -175t161.5 -67t178 67t87 175z" />
    <glyph glyph-name="uogonek" unicode="&#x173;" 
d="M879 -227q36 9 39 -25v-82q-3 -32 -29 -41q-39 -13 -82.5 -17t-89 3t-78 39t-39.5 86q-16 133 133 250q4 3 5 6.5t-1.5 5.5t-7.5 2h-35q-33 0 -30 35l6 55q1 7 -3.5 8.5t-9.5 -4.5q-91 -108 -258 -108q-151 0 -236.5 93.5t-64.5 264.5l82 674q6 35 39 35h211q32 0 29 -35
l-74 -602q-11 -83 26 -134t111 -51q68 0 117.5 41.5t67.5 110.5l77 635q3 35 39 35h211q34 0 31 -35l-125 -1010q0 -9 -8 -14q-5 -4 -21.5 -16t-25.5 -19q-102 -83 -94 -143q4 -30 28.5 -40.5t59.5 -2.5z" />
    <glyph glyph-name="Wcircumflex" unicode="&#x174;" horiz-adv-x="1714" 
d="M739 1550q-22 0 -26.5 13t10.5 30l162 199q17 20 45 20h215q28 0 39 -20l119 -199q9 -17 1 -30t-28 -13h-148q-23 0 -36 23l-60 117q-6 13 -16 0l-88 -117q-20 -23 -43 -23h-146zM385 0q-15 0 -24 8.5t-9 22.5l-182 1364q-3 17 6.5 28t28.5 11h225q30 0 33 -31l86 -817
q0 -5 3 -7t7 0t6 7l279 817q9 31 39 31h225q33 0 33 -31l96 -817q0 -6 2.5 -7.5t5.5 0.5t4 7l281 817q9 31 39 31h217q17 0 22.5 -11t-0.5 -28l-487 -1364q-9 -31 -41 -31h-219q-32 0 -35 31l-90 870q-2 8 -7.5 8.5t-8.5 -8.5l-293 -870q-9 -31 -39 -31h-203z" />
    <glyph glyph-name="wcircumflex" unicode="&#x175;" horiz-adv-x="1556" 
d="M594 1169q-20 0 -25 13t9 30l163 199q18 21 45 21h213q29 0 41 -21l117 -199q11 -17 3 -30t-30 -13h-147q-24 0 -37 23l-59 117q-1 6 -6.5 6t-8.5 -6l-88 -117q-20 -23 -43 -23h-147zM328 0q-29 0 -35 29l-158 985q-6 39 33 39h217q32 0 35 -31l61 -606q2 -8 8 -8.5
t9 8.5l221 606q9 31 43 31h194q13 0 22 -8.5t11 -22.5l76 -608q1 -9 8 -9t8 9l226 608q10 31 43 31l217 -2q38 0 24 -39l-405 -983q-13 -29 -41 -29h-223q-29 0 -35 29l-82 536q-3 8 -8.5 8.5t-8.5 -8.5l-196 -534q-5 -14 -16.5 -22.5t-24.5 -8.5h-223z" />
    <glyph glyph-name="Ycircumflex" unicode="&#x176;" horiz-adv-x="1224" 
d="M494 1550q-20 0 -25 13t8 30l164 199q17 20 45 20h213q30 0 41 -20l119 -199q9 -17 0.5 -30t-29.5 -13h-147q-24 0 -37 23l-58 117q-3 6 -8 6t-8 -6l-88 -117q-20 -23 -43 -23h-147zM467 2q-35 0 -29 35l62 506q0 12 -2 16l-299 834q-6 17 1.5 29t26.5 12h232
q28 0 35 -27l178 -533q2 -6 7 -6t9 6l307 533q17 27 43 27h232q20 0 26.5 -12t-4.5 -29l-508 -834q-6 -12 -6 -16l-63 -506q-3 -35 -37 -35h-211z" />
    <glyph glyph-name="ycircumflex" unicode="&#x177;" horiz-adv-x="1003" 
d="M338 1190q-20 0 -25 13t9 30l163 199q17 20 45 20h215q28 0 39 -20l119 -199q9 -17 0.5 -30t-29.5 -13h-145q-26 0 -39 22l-57 117q-3 6 -8.5 6t-8.5 -6l-88 -117q-19 -22 -43 -22h-147zM8 -408q-13 0 -10 35l20 168q3 35 17 35h12q123 0 179.5 32t92.5 130q3 9 3 16
l-197 1006q-4 17 5 28t28 11h227q29 0 35 -29l88 -610q0 -5 3 -7t7 0t6 7l230 608q10 31 41 31h229q17 0 23.5 -11t-0.5 -28l-469 -1053q-41 -90 -73.5 -145t-76.5 -102.5t-99 -71.5t-129.5 -37t-179.5 -13h-12z" />
    <glyph glyph-name="Ydieresis" unicode="&#x178;" horiz-adv-x="1224" 
d="M571 1550q-62 0 -95.5 40t-26.5 104t52 104.5t107 40.5q61 0 95 -40t26 -105q-7 -64 -51 -104t-107 -40zM952 1550q-63 0 -97 39.5t-26 104.5t52 105t108 40q61 0 95 -40t26 -105q-7 -64 -51 -104t-107 -40zM467 2q-35 0 -29 35l62 506q0 12 -2 16l-299 834q-6 17 1.5 29
t26.5 12h232q28 0 35 -27l178 -533q2 -6 7 -6t9 6l307 533q17 27 43 27h232q20 0 26.5 -12t-4.5 -29l-508 -834q-6 -12 -6 -16l-63 -506q-3 -35 -37 -35h-211z" />
    <glyph glyph-name="Zacute" unicode="&#x179;" horiz-adv-x="1105" 
d="M608 1583q-20 0 -25.5 11t5.5 30l121 186q16 25 43 25h200q21 0 26 -13t-9 -30l-150 -186q-20 -23 -45 -23h-166zM57 0q-34 0 -28 35l24 203q3 24 19 43l745 890q11 15 -6 15h-608q-16 0 -24 9t-5 26l23 178q3 35 36 35h900q33 0 30 -35l-24 -203q-3 -25 -21 -43
l-743 -891q-6 -6 -4 -10t10 -4h606q34 0 31 -35l-23 -178q-3 -35 -37 -35h-901z" />
    <glyph glyph-name="zacute" unicode="&#x17a;" horiz-adv-x="913" 
d="M461 1200q-19 0 -24 11t5 30l121 186q16 25 43 25h201q20 0 25 -13t-9 -30l-151 -186q-16 -23 -43 -23h-168zM41 0q-32 0 -29 35l25 203q3 23 20 43l504 497q3 4 3.5 7.5t-1.5 5.5t-6 2h-405q-34 0 -31 34l24 191q3 35 37 35h723q34 0 31 -35l-25 -201q-3 -24 -22 -43
l-516 -498q-3 -4 -3.5 -7t1.5 -5t6 -2h442q35 0 29 -35l-23 -192q-6 -35 -39 -35h-745z" />
    <glyph glyph-name="Zdotaccent" unicode="&#x17b;" horiz-adv-x="1105" 
d="M702 1565q-58 0 -89 36.5t-23 96.5t47.5 96.5t97.5 36.5q57 0 87.5 -36.5t23.5 -96.5t-47 -96.5t-97 -36.5zM57 0q-34 0 -28 35l24 203q3 24 19 43l745 890q11 15 -6 15h-608q-16 0 -24 9t-5 26l23 178q3 35 36 35h900q33 0 30 -35l-24 -203q-3 -25 -21 -43l-743 -891
q-6 -6 -4 -10t10 -4h606q34 0 31 -35l-23 -178q-3 -35 -37 -35h-901z" />
    <glyph glyph-name="zdotaccent" unicode="&#x17c;" horiz-adv-x="913" 
d="M557 1182q-58 0 -89.5 36.5t-23.5 96.5q6 60 46.5 96.5t99.5 36.5q56 0 86 -36.5t24 -96.5q-7 -60 -47 -96.5t-96 -36.5zM41 0q-32 0 -29 35l25 203q3 23 20 43l504 497q3 4 3.5 7.5t-1.5 5.5t-6 2h-405q-34 0 -31 34l24 191q3 35 37 35h723q34 0 31 -35l-25 -201
q-3 -24 -22 -43l-516 -498q-3 -4 -3.5 -7t1.5 -5t6 -2h442q35 0 29 -35l-23 -192q-6 -35 -39 -35h-745z" />
    <glyph glyph-name="Zcaron" unicode="&#x17d;" horiz-adv-x="1105" 
d="M582 1565q-24 0 -37 22l-101 197q-9 17 -1.5 30t28.5 13h143q24 0 37 -23l60 -116q1 -6 6 -6t8 6l88 116q20 23 43 23h141q20 0 25 -13t-8 -30l-154 -197q-19 -22 -43 -22h-235zM57 0q-34 0 -28 35l24 203q3 24 19 43l745 890q11 15 -6 15h-608q-16 0 -24 9t-5 26l23 178
q3 35 36 35h900q33 0 30 -35l-24 -203q-3 -25 -21 -43l-743 -891q-6 -6 -4 -10t10 -4h606q34 0 31 -35l-23 -178q-3 -35 -37 -35h-901z" />
    <glyph glyph-name="zcaron" unicode="&#x17e;" horiz-adv-x="913" 
d="M434 1182q-24 0 -37 22l-100 197q-8 17 -0.5 30t27.5 13h143q24 0 37 -23l59 -116q7 -14 17 0l88 116q16 23 43 23h139q22 0 26.5 -13t-10.5 -30l-151 -197q-19 -22 -43 -22h-238zM41 0q-32 0 -29 35l25 203q3 23 20 43l504 497q3 4 3.5 7.5t-1.5 5.5t-6 2h-405
q-34 0 -31 34l24 191q3 35 37 35h723q34 0 31 -35l-25 -201q-3 -24 -22 -43l-516 -498q-3 -4 -3.5 -7t1.5 -5t6 -2h442q35 0 29 -35l-23 -192q-6 -35 -39 -35h-745z" />
    <glyph glyph-name="florin" unicode="&#x192;" horiz-adv-x="1099" 
d="M1028 1219q-70 -1 -105.5 -33.5t-56.5 -108.5l-51 -188q-6 -12 10 -12h129q16 0 24 -9t5 -26l-20 -174q-6 -35 -39 -35h-168q-10 0 -17 -10l-196 -709q-23 -84 -52.5 -140t-70 -95t-101.5 -59t-137 -27.5t-186 -4.5q-34 3 -31 37l19 146q3 34 39 34h83q63 0 102.5 31.5
t63.5 110.5l187 674q6 12 -10 12h-115q-35 0 -29 35l21 174q3 35 39 35h153q10 0 17 10l61 223q19 72 41.5 122.5t55 89t71.5 61t96.5 35.5t123.5 17t159 1q34 -3 31 -37l-19 -146q-3 -34 -39 -34h-88z" />
    <glyph glyph-name="uni01CD" unicode="&#x1cd;" horiz-adv-x="1333" 
d="M971 1556q-19 -22 -43 -22h-238q-24 0 -37 22l-100 195q-9 17 -1 30t28 13h143q24 0 37 -22l59 -117q1 -6 6.5 -6t10.5 6l88 117q16 22 41 22h141q21 0 25.5 -13t-9.5 -30zM975 0q-30 0 -33 29l-33 190q-3 10 -10 10h-487q-10 0 -13 -10l-80 -190q-13 -29 -40 -29h-232
q-17 0 -23.5 11t1.5 28l591 1366q13 29 41 29h291q29 0 35 -29l256 -1366q3 -17 -6.5 -28t-26.5 -11h-231zM498 467q-3 -14 8 -14h352q12 0 12 14l-102 625q-1 5 -3.5 6.5t-6 0t-6.5 -6.5z" />
    <glyph glyph-name="uni01CE" unicode="&#x1ce;" horiz-adv-x="1101" 
d="M813 1176q-16 -23 -41 -23h-237q-24 0 -37 23l-101 194q-9 17 -1.5 30t28.5 13h143q24 0 37 -22l60 -117q2 -6 6.5 -6t7.5 6l88 117q19 22 43 22h141q21 0 26 -13t-9 -30zM805 1018q3 35 37 35h213q33 0 30 -35l-120 -983q-6 -35 -39 -35h-213q-16 0 -24 9t-5 26l6 55
q1 7 -3 8.5t-9 -4.5q-95 -110 -242 -110q-134 0 -227.5 82.5t-118.5 218.5q-21 99 -4 245q20 152 70 254q61 132 170.5 209.5t244.5 77.5q148 0 213 -100q4 -6 9.5 -4t5.5 10zM678 324q48 76 63 202q18 130 -14 211q-42 80 -125 80q-90 0 -147 -78q-59 -82 -74 -215
q-15 -124 16 -200q37 -88 135 -88q87 0 146 88z" />
    <glyph glyph-name="uni0218" unicode="&#x218;" horiz-adv-x="1175" 
d="M551 -16q-235 0 -361.5 116.5t-103.5 311.5l4 34q6 35 39 35h209q15 0 23.5 -7t7.5 -19l-4 -29q-9 -81 56 -138t181 -57q106 0 162.5 46t64.5 114q6 49 -27.5 86.5t-76.5 58.5t-153 65q-5 2 -7 3q-52 19 -87 33.5t-82.5 38.5t-79 47.5t-64.5 57.5t-50.5 71t-26 86.5
t-1.5 105.5q23 187 170.5 296.5t364.5 109.5q230 0 361 -121.5t108 -318.5l-4 -21q-3 -35 -37 -35h-209q-34 0 -31 21l2 20q10 85 -50.5 146t-180.5 61q-95 0 -151.5 -40.5t-65.5 -112.5q-4 -32 5 -57t26.5 -44t56.5 -40.5t79.5 -38.5t112.5 -44q143 -56 193 -84
q169 -94 187 -248q5 -44 -1 -94q-23 -188 -175 -301.5t-384 -113.5zM322 -377q-20 0 -25.5 11t6.5 30l119 186q16 25 43 25h201q21 0 25.5 -13t-9.5 -30l-150 -186q-20 -23 -45 -23h-165z" />
    <glyph glyph-name="uni0219" unicode="&#x219;" horiz-adv-x="999" 
d="M469 -14q-200 0 -309 85t-92 220l2 10q3 35 36 35h201q33 0 33 -12l-2 -15q-6 -45 38 -76.5t118 -31.5q68 0 112 27t49 69q4 37 -30.5 56.5t-118 41.5t-131.5 43q-45 16 -78 31.5t-69 41.5t-57.5 55.5t-33 73.5t-4.5 97q19 152 144.5 241t312.5 89q191 0 296.5 -92.5
t88.5 -239.5q-2 -11 -12 -17.5t-25 -6.5h-195q-35 0 -32 12l2 12q5 46 -35 76.5t-113 30.5q-67 0 -112.5 -24.5t-51.5 -67.5q-2 -20 7.5 -35.5t26.5 -25.5t45.5 -20t55.5 -17t66.5 -17.5t69.5 -20.5q51 -16 89 -32t77 -42t62 -57t35 -76t5 -100q-20 -152 -147.5 -236.5
t-323.5 -84.5zM244 -375q-19 0 -24 11t5 30l121 187q15 24 43 24h201q20 0 25 -13t-9 -30l-151 -186q-16 -23 -43 -23h-168z" />
    <glyph glyph-name="uni021A" unicode="&#x21a;" horiz-adv-x="1189" 
d="M188 1399q3 35 37 35h981q34 0 31 -35l-23 -180q-3 -35 -38 -35h-342q-12 0 -15 -13l-139 -1136q-3 -35 -39 -35h-211q-34 0 -31 35l140 1136q3 13 -11 13h-333q-16 0 -24 9t-5 26zM276 -360q-20 0 -25.5 11t5.5 30l121 186q15 24 43 24h201q21 0 25.5 -13t-9.5 -30
l-150 -186q-19 -22 -45 -22h-166z" />
    <glyph glyph-name="uni021B" unicode="&#x21b;" horiz-adv-x="755" 
d="M555 1065q0 -12 12 -12h178q16 0 24 -9t5 -26l-18 -162q-6 -35 -39 -35h-178q-12 0 -15 -12l-51 -424q-9 -67 14 -99t82 -32h56q33 0 30 -35l-22 -176q-1 -15 -11.5 -25t-25.5 -12q-78 -4 -111 -4q-81 0 -136 11.5t-97 40.5t-57.5 83t-6.5 135l66 537q3 12 -10 12h-101
q-33 0 -30 35l20 162q3 35 37 35h102q12 0 15 12l26 231q6 35 39 35h203q35 0 29 -35zM207 -500q-42 0 -19 41l121 187q12 24 41 24h201q22 0 26.5 -13t-10.5 -30l-149 -186q-20 -23 -45 -23h-166z" />
    <glyph glyph-name="uni0228" unicode="&#x228;" horiz-adv-x="1159" 
d="M1196 1221q-3 -35 -37 -35h-641q-4 0 -8 -3.5t-4 -8.5l-39 -314q0 -12 10 -12h416q35 0 29 -35l-21 -178q-6 -35 -39 -35h-416q-12 0 -12 -12l-41 -328q0 -12 10 -12h641q32 0 29 -35l-22 -178q-3 -35 -37 -35h-316q-6 0 -8 -4t2 -10q88 -107 43 -219q-21 -54 -61 -86
t-87 -39t-89 -3t-78 17q-26 9 -19 41l21 82q9 33 45 24q32 -8 59 2.5t39 40.5q23 66 -65 148q-6 6 -13 6h-372q-32 0 -29 35l168 1364q3 35 37 35h899q32 0 29 -35z" />
    <glyph glyph-name="uni0229" unicode="&#x229;" 
d="M584 227q134 6 213 95q29 29 47 4l100 -113q19 -22 -2 -49q-121 -133 -301 -168q-7 -1 -9 -6.5t3 -9.5q101 -110 55 -234q-21 -54 -61 -86t-87 -39t-89 -3t-78 17q-29 9 -19 41l19 82q12 34 45 25q34 -8 61 2.5t37 40.5q26 68 -78 162q-8 4 -14 6q-138 24 -218.5 115.5
t-98.5 234.5q-15 89 -3 191q15 115 48 200q59 152 190 244t297 92q194 0 293.5 -119.5t107.5 -333.5q0 -78 -8 -149q-3 -35 -37 -35h-610q-12 0 -12 -12q-3 -37 4 -64q13 -63 67 -97t138 -34zM606 821q-129 0 -180 -121q-15 -34 -18 -51q-3 -12 8 -12h338q12 0 12 12
q0 19 -4 43q-11 60 -50.5 94.5t-105.5 34.5z" />
    <glyph glyph-name="circumflex" unicode="&#x2c6;" horiz-adv-x="638" 
d="M156 1169q-21 0 -26 13t9 30l164 199q15 21 43 21h215q27 0 39 -21l119 -199q9 -17 1 -30t-28 -13h-147q-24 0 -37 23l-59 117q-1 6 -7 6t-10 -6l-88 -117q-16 -23 -41 -23h-147z" />
    <glyph glyph-name="caron" unicode="&#x2c7;" horiz-adv-x="700" 
d="M334 1159q-24 0 -37 23l-102 196q-8 17 -1 30t27 13h144q23 0 36 -22l60 -117q3 -6 8 -6t8 6l88 117q19 22 43 22h142q20 0 25 -13t-9 -30l-154 -196q-20 -23 -43 -23h-235z" />
    <glyph glyph-name="uni02C9" unicode="&#x2c9;" horiz-adv-x="583" 
d="M139 1184q-34 0 -28 35l14 124q3 35 39 35h516q35 0 29 -35l-15 -124q-6 -35 -39 -35h-516z" />
    <glyph glyph-name="breve" unicode="&#x2d8;" horiz-adv-x="573" 
d="M385 1124q-95 0 -157 58.5t-64 148.5q0 37 39 37h78q15 0 22 -7.5t10 -25.5q5 -36 29 -59t57 -23q36 0 66.5 23t44.5 59q11 33 39 33h80q37 0 28 -35q-23 -91 -100 -150t-172 -59z" />
    <glyph glyph-name="dotaccent" unicode="&#x2d9;" horiz-adv-x="329" 
d="M268 1157q-57 0 -87.5 36.5t-24.5 96.5q7 60 47.5 96.5t97.5 36.5t88 -36.5t25 -96.5q-7 -60 -48 -96.5t-98 -36.5z" />
    <glyph glyph-name="ring" unicode="&#x2da;" horiz-adv-x="518" 
d="M360 1147q-93 0 -149 65.5t-45 161.5q12 95 85 161.5t167 66.5q92 0 148.5 -66.5t45.5 -161.5q-12 -95 -85 -161t-167 -66zM377 1278q39 0 69.5 28t36.5 68q4 42 -19.5 70.5t-62.5 28.5q-40 0 -71 -28t-37 -71q-5 -40 19.5 -68t64.5 -28z" />
    <glyph glyph-name="ogonek" unicode="&#x2db;" horiz-adv-x="335" 
d="M252 -334q-3 -33 -29 -41q-39 -13 -82.5 -17t-89 3t-78 39t-39.5 86q-16 132 134 250q20 14 43 14h102q15 0 21 -6t2 -15.5t-17 -19.5q-102 -83 -94 -143q4 -30 28.5 -40.5t59.5 -2.5q36 9 39 -25v-82z" />
    <glyph glyph-name="tilde" unicode="&#x2dc;" horiz-adv-x="700" 
d="M563 1176q-56 0 -125 51q-44 33 -73 33q-43 0 -78 -35q-26 -29 -47 -11l-64 50q-24 20 -6 47q35 67 88 101t111 34q34 0 61 -12t62 -35q62 -37 90 -37q41 0 73 37q23 29 45 10l66 -49q25 -22 -4 -64q-43 -60 -96.5 -90t-102.5 -30z" />
    <glyph glyph-name="hungarumlaut" unicode="&#x2dd;" horiz-adv-x="845" 
d="M190 1192q-20 0 -25 12t7 29l117 186q16 25 43 25h196q21 0 26 -13t-9 -30l-150 -187q-19 -22 -43 -22h-162zM557 1192q-19 0 -24 12t6 29l118 186q16 25 43 25h197q20 0 25 -13t-9 -30l-149 -187q-19 -22 -43 -22h-164z" />
    <glyph glyph-name="gravecomb" unicode="&#x300;" horiz-adv-x="0" 
d="M86 1217q6 -19 -2 -30t-27 -11h-168q-23 0 -36 22l-105 186q-9 17 -2 30t27 13h200q28 0 37 -24z" />
    <glyph glyph-name="acutecomb" unicode="&#x301;" horiz-adv-x="0" 
d="M-299 1176q-20 0 -25.5 11t5.5 30l120 186q15 24 43 24h201q21 0 25.5 -13t-9.5 -30l-149 -186q-19 -22 -45 -22h-166z" />
    <glyph glyph-name="uni0302" unicode="&#x302;" horiz-adv-x="0" 
d="M-483 1169q-21 0 -26 13t9 30l164 199q15 21 43 21h215q27 0 39 -21l119 -199q9 -17 1 -30t-28 -13h-147q-24 0 -37 23l-59 117q-2 6 -7 6t-10 -6l-88 -117q-16 -23 -41 -23h-147z" />
    <glyph glyph-name="tildecomb" unicode="&#x303;" horiz-adv-x="0" 
d="M-129 1176q-25 0 -51 9.5t-37.5 16.5t-36.5 25q-44 33 -72 33q-45 0 -77 -35q-28 -31 -48 -11l-63 50q-23 20 -8 47q37 67 89 101t109 34q34 0 61 -12t62 -35q62 -37 92 -37q40 0 72 37q24 28 47 10l66 -49q24 -21 -6 -64q-43 -60 -96.5 -90t-102.5 -30z" />
    <glyph glyph-name="uni0304" unicode="&#x304;" horiz-adv-x="0" 
d="M-444 1184q-35 0 -29 35l14 124q3 35 39 35h516q35 0 29 -35l-14 -124q-6 -35 -39 -35h-516z" />
    <glyph glyph-name="uni0306" unicode="&#x306;" horiz-adv-x="0" 
d="M-190 1112q-94 0 -156.5 59.5t-65.5 149.5q3 37 39 37h80q28 0 31 -33q5 -37 29 -59.5t59 -22.5t64.5 22.5t43.5 59.5q11 33 41 33h78q37 0 31 -35q-25 -91 -102 -151t-172 -60z" />
    <glyph glyph-name="uni0307" unicode="&#x307;" horiz-adv-x="0" 
d="M-25 1157q-58 0 -89 36.5t-23 96.5t47.5 96.5t97.5 36.5q57 0 87.5 -36.5t23.5 -96.5t-47 -96.5t-97 -36.5z" />
    <glyph glyph-name="uni0308" unicode="&#x308;" horiz-adv-x="0" 
d="M-416 1169q-62 0 -97 40t-28 104t52.5 104.5t107.5 40.5q63 0 96 -40t25 -105q-7 -64 -50.5 -104t-105.5 -40zM-35 1169q-64 0 -98 39.5t-25 104.5q8 65 51 105t107 40q63 0 96 -40t25 -105t-50.5 -104.5t-105.5 -39.5z" />
    <glyph glyph-name="uni030A" unicode="&#x30a;" horiz-adv-x="0" 
d="M-113 1147q-94 0 -150 66t-44 161q12 96 84.5 162t165.5 66q94 0 150 -66.5t44 -161.5q-10 -95 -83.5 -161t-166.5 -66zM-96 1278q38 0 69 28t35 68q6 42 -17.5 70.5t-62.5 28.5q-41 0 -71.5 -28t-36.5 -71q-5 -40 19.5 -68t64.5 -28z" />
    <glyph glyph-name="uni030B" unicode="&#x30b;" horiz-adv-x="0" 
d="M-614 1171q-20 0 -26 11t3 30l107 185q16 26 43 26h182q20 0 25.5 -12t-5.5 -29l-118 -186q-16 -25 -43 -25h-168zM-260 1171q-19 0 -24.5 12t5.5 29l119 187q15 24 43 24h168q20 0 25.5 -11t-6.5 -30l-119 -186q-16 -25 -43 -25h-168z" />
    <glyph glyph-name="uni030C" unicode="&#x30c;" horiz-adv-x="0" 
d="M-369 1155q-24 0 -37 23l-100 194q-9 17 -1 30t28 13h143q24 0 37 -22l59 -117q2 -6 7.5 -6t9.5 6l88 117q16 22 41 22h141q21 0 25.5 -13t-9.5 -30l-151 -194q-20 -23 -43 -23h-238z" />
    <glyph glyph-name="uni0312" unicode="&#x312;" horiz-adv-x="0" 
d="M51 1417q19 0 24 -11t-5 -30l-121 -186q-16 -25 -43 -25h-201q-20 0 -25 13t9 30l149 187q19 22 45 22h168z" />
    <glyph glyph-name="uni0313" unicode="&#x313;" horiz-adv-x="0" 
d="M-262 1176q-19 0 -24 11t5 30l121 186q15 24 43 24h201q20 0 25 -13t-9 -30l-149 -186q-19 -22 -45 -22h-168z" />
    <glyph glyph-name="uni0326" unicode="&#x326;" horiz-adv-x="0" 
d="M-485 -360q-20 0 -25.5 11t6.5 30l119 186q15 24 43 24h201q21 0 25.5 -13t-9.5 -30l-149 -186q-19 -22 -45 -22h-166z" />
    <glyph glyph-name="uni0327" unicode="&#x327;" horiz-adv-x="0" 
d="M-393 -375q-29 9 -19 41l19 82q12 34 45 25q34 -8 61 2.5t37 40.5q23 61 -59 143q-16 15 -11.5 28t27.5 13h103q23 0 40 -14q122 -119 72 -250q-21 -54 -61.5 -86t-87.5 -39t-89 -3t-77 17z" />
    <glyph glyph-name="uni0328" unicode="&#x328;" horiz-adv-x="0" 
d="M-84 -334q-3 -33 -29 -41q-39 -13 -82.5 -17t-88.5 3t-77.5 39t-39.5 86q-16 133 133 250q20 14 43 14h102q15 0 21 -6t2 -15.5t-17 -19.5q-102 -83 -94 -143q4 -30 28.5 -40.5t59.5 -2.5q36 9 39 -25v-82z" />
    <glyph glyph-name="uni0335" unicode="&#x335;" horiz-adv-x="0" 
d="M-586 1282q6 35 39 35h635q34 0 31 -35l-13 -104q-6 -35 -38 -35h-635q-34 0 -31 35z" />
    <glyph glyph-name="uni0336" unicode="&#x336;" horiz-adv-x="0" 
d="M-1126 1042q-34 0 -31 35l16 127q3 35 37 35h1184q32 0 29 -35l-17 -127q-3 -35 -37 -35h-1181z" />
    <glyph glyph-name="uni0337" unicode="&#x337;" horiz-adv-x="0" 
d="M-870 -59q-12 -11 -25.5 -10t-22.5 14l-79 112q-15 27 10 49l1036 807q31 24 49 -4l80 -114q19 -28 -10 -50z" />
    <glyph glyph-name="uni0338" unicode="&#x338;" horiz-adv-x="0" 
d="M-948 -76q-19 0 -25 12t4 29l934 1526q16 25 43 25h92q20 0 26 -12t-5 -29l-934 -1526q-16 -25 -43 -25h-92z" />
    <glyph glyph-name="uni0394" unicode="&#x394;" horiz-adv-x="1312" 
d="M41 0q-32 0 -29 35l23 190q3 20 14 43l627 1139q17 27 43 27h147q25 0 35 -27l350 -1141q4 -30 2 -43l-22 -188q-6 -35 -39 -35h-1151zM319 264q-8 -14 9 -14h641q15 0 12 14l-229 783q-1 5 -4 6.5t-6 0t-5 -6.5z" />
    <glyph glyph-name="uni03A9" unicode="&#x3a9;" horiz-adv-x="1261" 
d="M88 0q-34 0 -31 35l23 178q3 35 39 35h71q8 0 11.5 4t-0.5 10q-87 121 -64 299l45 375q29 231 190.5 372.5t395.5 141.5q236 0 363 -142t98 -372l-45 -375q-24 -183 -137 -299q-6 -6 -4 -10t8 -4h73q34 0 31 -35l-22 -178q-3 -35 -39 -35h-414q-34 0 -31 35l25 188
q3 28 33 37q73 22 125.5 90t64.5 162l53 430q14 119 -44.5 190.5t-168.5 71.5q-109 0 -184 -72t-90 -190l-53 -430q-10 -95 26.5 -162.5t102.5 -91.5q27 -9 24 -37l-22 -186q-3 -35 -39 -35h-414z" />
    <glyph glyph-name="uni03BC" unicode="&#x3bc;" horiz-adv-x="1093" 
d="M795 1018q3 35 36 35h213q34 0 31 -35l-121 -983q-6 -35 -39 -35h-213q-31 0 -28 35l6 55q1 7 -3 8.5t-9 -4.5q-92 -108 -258 -108q-20 0 -56 4q-10 3 -14 -13l-43 -352q-3 -35 -37 -35h-213q-35 0 -29 35l170 1393q3 35 39 35h211q34 0 31 -35l-74 -602q-11 -83 26 -134
t111 -51q68 0 117.5 41.5t67.5 110.5z" />
    <glyph glyph-name="pi" unicode="&#x3c0;" horiz-adv-x="1314" 
d="M1321 842q-3 -35 -39 -35h-104q-13 0 -13 -12l-49 -396q-4 -52 -3.5 -82.5t14.5 -46t28 -20t39 -4.5q34 0 31 -35l-23 -176q-3 -35 -37 -35q-141 -4 -197 7q-150 29 -155 174q-1 30 4 63l68 551q0 12 -11 12h-309q-12 0 -12 -12l-94 -760q-3 -35 -37 -35h-213
q-34 0 -31 35l94 760q0 12 -10 12h-110q-34 0 -31 35l22 176q3 35 37 35h1133q33 0 30 -35z" />
    <glyph glyph-name="Wgrave" unicode="&#x1e80;" horiz-adv-x="1714" 
d="M1116 1597q6 -19 -2 -30t-27 -11h-167q-24 0 -37 23l-105 186q-9 17 -1.5 30t28.5 13h201q27 0 36 -24zM385 0q-15 0 -24 8.5t-9 22.5l-182 1364q-3 17 6.5 28t28.5 11h225q30 0 33 -31l86 -817q0 -5 3 -7t7 0t6 7l279 817q9 31 39 31h225q33 0 33 -31l96 -817
q0 -6 2.5 -7.5t5.5 0.5t4 7l281 817q9 31 39 31h217q17 0 22.5 -11t-0.5 -28l-487 -1364q-9 -31 -41 -31h-219q-32 0 -35 31l-90 870q-2 8 -7.5 8.5t-8.5 -8.5l-293 -870q-9 -31 -39 -31h-203z" />
    <glyph glyph-name="wgrave" unicode="&#x1e81;" horiz-adv-x="1556" 
d="M973 1217q6 -19 -2.5 -30t-28.5 -11h-166q-24 0 -37 22l-104 186q-9 17 -2.5 30t26.5 13h201q28 0 37 -24zM328 0q-29 0 -35 29l-158 985q-6 39 33 39h217q32 0 35 -31l61 -606q2 -8 8 -8.5t9 8.5l221 606q9 31 43 31h194q13 0 22 -8.5t11 -22.5l76 -608q1 -9 8 -9t8 9
l226 608q10 31 43 31l217 -2q38 0 24 -39l-405 -983q-13 -29 -41 -29h-223q-29 0 -35 29l-82 536q-3 8 -8.5 8.5t-8.5 -8.5l-196 -534q-5 -14 -16.5 -22.5t-24.5 -8.5h-223z" />
    <glyph glyph-name="Wacute" unicode="&#x1e82;" horiz-adv-x="1714" 
d="M909 1556q-19 0 -24 11t6 30l121 187q15 24 43 24h200q20 0 25 -13t-8 -30l-150 -186q-20 -23 -45 -23h-168zM385 0q-15 0 -24 8.5t-9 22.5l-182 1364q-3 17 6.5 28t28.5 11h225q30 0 33 -31l86 -817q0 -5 3 -7t7 0t6 7l279 817q9 31 39 31h225q33 0 33 -31l96 -817
q0 -6 2.5 -7.5t5.5 0.5t4 7l281 817q9 31 39 31h217q17 0 22.5 -11t-0.5 -28l-487 -1364q-9 -31 -41 -31h-219q-32 0 -35 31l-90 870q-2 8 -7.5 8.5t-8.5 -8.5l-293 -870q-9 -31 -39 -31h-203z" />
    <glyph glyph-name="wacute" unicode="&#x1e83;" horiz-adv-x="1556" 
d="M766 1176q-41 0 -18 41l120 186q12 24 41 24h201q22 0 27 -13t-9 -30l-151 -186q-16 -22 -43 -22h-168zM328 0q-29 0 -35 29l-158 985q-6 39 33 39h217q32 0 35 -31l61 -606q2 -8 8 -8.5t9 8.5l221 606q9 31 43 31h194q13 0 22 -8.5t11 -22.5l76 -608q1 -9 8 -9t8 9
l226 608q10 31 43 31l217 -2q38 0 24 -39l-405 -983q-13 -29 -41 -29h-223q-29 0 -35 29l-82 536q-3 8 -8.5 8.5t-8.5 -8.5l-196 -534q-5 -14 -16.5 -22.5t-24.5 -8.5h-223z" />
    <glyph glyph-name="Wdieresis" unicode="&#x1e84;" horiz-adv-x="1714" 
d="M815 1550q-61 0 -95.5 40t-27.5 104t52.5 104.5t107.5 40.5q63 0 96 -40t25 -105q-7 -64 -51 -104t-107 -40zM1198 1550q-64 0 -98.5 39.5t-26.5 104.5q9 65 52.5 105t107.5 40q63 0 96 -40t25 -105q-7 -64 -50.5 -104t-105.5 -40zM385 0q-15 0 -24 8.5t-9 22.5
l-182 1364q-3 17 6.5 28t28.5 11h225q30 0 33 -31l86 -817q0 -5 3 -7t7 0t6 7l279 817q9 31 39 31h225q33 0 33 -31l96 -817q0 -6 2.5 -7.5t5.5 0.5t4 7l281 817q9 31 39 31h217q17 0 22.5 -11t-0.5 -28l-487 -1364q-9 -31 -41 -31h-219q-32 0 -35 31l-90 870q-2 8 -7.5 8.5
t-8.5 -8.5l-293 -870q-9 -31 -39 -31h-203z" />
    <glyph glyph-name="wdieresis" unicode="&#x1e85;" horiz-adv-x="1556" 
d="M672 1169q-62 0 -96 40t-27 104t52 104.5t106 40.5q63 0 96.5 -40t25.5 -105q-9 -65 -51.5 -104.5t-105.5 -39.5zM1053 1169q-63 0 -97 39.5t-26 104.5t52 105t108 40q61 0 94.5 -40t25.5 -105t-51 -104.5t-106 -39.5zM328 0q-29 0 -35 29l-158 985q-6 39 33 39h217
q32 0 35 -31l61 -606q2 -8 8 -8.5t9 8.5l221 606q9 31 43 31h194q13 0 22 -8.5t11 -22.5l76 -608q1 -9 8 -9t8 9l226 608q10 31 43 31l217 -2q38 0 24 -39l-405 -983q-13 -29 -41 -29h-223q-29 0 -35 29l-82 536q-3 8 -8.5 8.5t-8.5 -8.5l-196 -534q-5 -14 -16.5 -22.5
t-24.5 -8.5h-223z" />
    <glyph glyph-name="Ygrave" unicode="&#x1ef2;" horiz-adv-x="1224" 
d="M872 1597q6 -19 -2 -30t-28 -11h-166q-24 0 -37 23l-104 186q-9 17 -2.5 30t26.5 13h201q28 0 37 -24zM467 2q-35 0 -29 35l62 506q0 12 -2 16l-299 834q-6 17 1.5 29t26.5 12h232q28 0 35 -27l178 -533q2 -6 7 -6t9 6l307 533q17 27 43 27h232q20 0 26.5 -12t-4.5 -29
l-508 -834q-6 -12 -6 -16l-63 -506q-3 -35 -37 -35h-211z" />
    <glyph glyph-name="ygrave" unicode="&#x1ef3;" horiz-adv-x="1003" 
d="M717 1237q6 -19 -2 -30t-27 -11h-168q-24 0 -37 23l-104 186q-9 17 -2.5 30t26.5 13h201q28 0 37 -25zM8 -408q-13 0 -10 35l20 168q3 35 17 35h12q123 0 179.5 32t92.5 130q3 9 3 16l-197 1006q-4 17 5 28t28 11h227q29 0 35 -29l88 -610q0 -5 3 -7t7 0t6 7l230 608
q10 31 41 31h229q17 0 23.5 -11t-0.5 -28l-469 -1053q-41 -90 -73.5 -145t-76.5 -102.5t-99 -71.5t-129.5 -37t-179.5 -13h-12z" />
    <glyph glyph-name="endash" unicode="&#x2013;" horiz-adv-x="946" 
d="M109 457q-34 0 -31 35l22 178q3 35 37 35h766q35 0 29 -35l-21 -178q-6 -35 -39 -35h-763z" />
    <glyph glyph-name="emdash" unicode="&#x2014;" horiz-adv-x="1308" 
d="M109 459q-34 0 -31 35l22 176q3 35 37 35h1127q33 0 30 -35l-22 -176q-3 -35 -37 -35h-1126z" />
    <glyph glyph-name="quoteleft" unicode="&#x2018;" horiz-adv-x="405" 
d="M121 971q-17 0 -23.5 12t2.5 29l205 395q15 27 41 27h156q19 0 25.5 -11t-1.5 -28l-151 -396q-12 -28 -41 -28h-213z" />
    <glyph glyph-name="quoteright" unicode="&#x2019;" horiz-adv-x="405" 
d="M500 1434q18 0 23.5 -12t-3.5 -29l-205 -396q-14 -26 -41 -26h-155q-17 0 -24 11t-1 28l152 395q13 29 41 29h213z" />
    <glyph glyph-name="quotesinglbase" unicode="&#x201a;" horiz-adv-x="1191" 
d="M49 -201q-37 0 -24 37l118 455q3 15 14 24t25 9h183q17 0 23.5 -11t0.5 -28l-176 -457q-13 -29 -41 -29h-123z" />
    <glyph glyph-name="quotedblleft" unicode="&#x201c;" horiz-adv-x="720" 
d="M121 971q-17 0 -23.5 11t0.5 28l185 395q12 29 43 29h145q19 0 26 -11t1 -28l-138 -394q-9 -30 -38 -30h-201zM473 971q-19 0 -25 11t3 28l180 395q12 29 43 29h145q18 0 24.5 -10.5t0.5 -28.5l-131 -394q-9 -30 -39 -30h-201z" />
    <glyph glyph-name="quotedblright" unicode="&#x201d;" horiz-adv-x="720" 
d="M465 1434q17 0 23.5 -11t-1.5 -28l-182 -396q-11 -28 -43 -28h-145q-35 0 -25 39l131 393q9 31 41 31h201zM815 1434q19 0 26 -11t-1 -28l-185 -396q-11 -28 -43 -28h-147q-18 0 -24.5 10.5t-0.5 28.5l135 393q9 31 39 31h201z" />
    <glyph glyph-name="quotedblbase" unicode="&#x201e;" horiz-adv-x="761" 
d="M319 262q19 0 26 -11t-1 -28l-182 -395q-12 -29 -43 -29h-146q-38 0 -24 39l131 393q9 31 39 31h200zM672 262q19 0 25 -11t-3 -28l-182 -395q-12 -29 -43 -29h-147q-19 0 -26 11t1 28l135 393q9 31 39 31h201z" />
    <glyph glyph-name="dagger" unicode="&#x2020;" horiz-adv-x="892" 
d="M877 940q34 0 28 -35l-18 -147q-3 -35 -37 -35h-203q-11 0 -14 -12l-133 -1086q-3 -35 -37 -35h-213q-35 0 -29 35l133 1086q0 12 -10 12h-203q-33 0 -30 35l18 147q3 35 39 35h203q12 0 12 12l55 447q3 35 37 35h213q34 0 31 -35l-55 -447q-3 -12 10 -12h203z" />
    <glyph glyph-name="daggerdbl" unicode="&#x2021;" horiz-adv-x="892" 
d="M887 758q-3 -35 -37 -35h-203q-11 0 -14 -12l-47 -398q-2 -5 1 -8.5t9 -3.5h203q31 0 28 -35l-18 -147q-3 -35 -37 -35h-203q-11 0 -14 -12l-55 -447q-3 -35 -37 -35h-213q-35 0 -29 35l53 447q3 12 -10 12h-203q-31 0 -28 35l18 147q3 35 37 35h203q11 0 14 12l49 398
q0 12 -10 12h-203q-33 0 -30 35l18 147q3 35 39 35h203q12 0 12 12l55 447q3 35 37 35h213q34 0 31 -35l-55 -447q-3 -12 10 -12h203q34 0 28 -35z" />
    <glyph glyph-name="bullet" unicode="&#x2022;" horiz-adv-x="628" 
d="M313 299q-107 0 -173 78.5t-52 189.5q13 110 98.5 187t192.5 77q106 0 171 -77t52 -187q-14 -110 -98.5 -189t-190.5 -79z" />
    <glyph glyph-name="ellipsis" unicode="&#x2026;" horiz-adv-x="1687" 
d="M221 -8q-77 0 -122 52t-36 126q7 72 69 124t132 52q73 0 123 -52t41 -124q-9 -74 -68.5 -126t-138.5 -52zM801 -8q-77 0 -122 52t-36 126q9 72 70.5 124t132.5 52q72 0 121.5 -52t40.5 -124q-9 -74 -68.5 -126t-138.5 -52zM1378 -8q-78 0 -123 51.5t-36 126.5
q9 72 70.5 124t131.5 52q72 0 121.5 -52t42.5 -124q-9 -74 -69 -126t-138 -52z" />
    <glyph glyph-name="perthousand" unicode="&#x2030;" horiz-adv-x="2330" 
d="M358 565q-133 0 -201 77.5t-53 211.5l39 311q15 131 103 208t221 77q132 0 201.5 -77.5t52.5 -207.5l-39 -311q-15 -133 -103 -211t-221 -78zM346 0q-20 0 -25.5 12t7.5 29l942 1368q19 25 43 25h129q19 0 24.5 -12t-6.5 -29l-942 -1368q-19 -25 -43 -25h-129zM377 725
q51 0 84 31.5t39 85.5l41 329q8 54 -18 86.5t-77 32.5q-49 0 -81.5 -32.5t-38.5 -86.5l-41 -329q-7 -54 17.5 -85.5t74.5 -31.5zM1309 -16q-132 0 -200.5 77.5t-51.5 210.5l39 312q15 130 102 207t219 77q133 0 202 -76.5t54 -207.5l-39 -312q-17 -134 -104.5 -211
t-220.5 -77zM1962 -16q-132 0 -200.5 77.5t-51.5 210.5l39 312q15 130 102.5 207t219.5 77q133 0 202 -76.5t54 -207.5l-39 -312q-15 -133 -103.5 -210.5t-222.5 -77.5zM1329 143q51 0 84 31.5t39 85.5l41 330q6 55 -19 87t-75 32t-83.5 -32.5t-39.5 -86.5l-41 -330
q-6 -54 19.5 -85.5t74.5 -31.5zM1982 143q51 0 84 31.5t39 85.5l41 330q6 55 -19 87t-75 32q-49 0 -82 -32.5t-41 -86.5l-39 -330q-7 -54 17.5 -85.5t74.5 -31.5z" />
    <glyph glyph-name="guilsinglleft" unicode="&#x2039;" horiz-adv-x="665" 
d="M510 260q9 -17 1 -29t-28 -12h-176q-25 0 -37 23l-143 309q-12 25 6 49l219 309q17 23 43 23h176q20 0 24.5 -12t-7.5 -29l-219 -307q-6 -8 0 -17z" />
    <glyph glyph-name="guilsinglright" unicode="&#x203a;" horiz-adv-x="690" 
d="M156 219q-19 0 -24 12t7 29l219 307q5 8 2 17l-143 307q-9 17 -1 29t28 12h176q26 0 37 -23l143 -309q12 -25 -6 -49l-219 -309q-17 -23 -41 -23h-178z" />
    <glyph glyph-name="fraction" unicode="&#x2044;" horiz-adv-x="438" 
d="M-260 0q-20 0 -25.5 12t6.5 29l943 1368q19 25 43 25h129q20 0 25 -12t-7 -29l-942 -1368q-19 -25 -43 -25h-129z" />
    <glyph glyph-name="uni2074" unicode="&#x2074;" horiz-adv-x="731" 
d="M756 1237q34 0 28 -35l-10 -98q-6 -35 -39 -35h-24q-13 0 -13 -12l-20 -168q-6 -35 -39 -35h-113q-33 0 -30 35l22 168q0 12 -12 12h-344q-34 0 -31 35l10 78q3 23 13 43l258 463q16 26 43 26h116q20 0 26 -12t-5 -29l-227 -422q-8 -14 8 -14h153q15 0 15 12l14 121
q6 35 39 35h113q33 0 30 -35l-16 -121q0 -12 10 -12h25z" />
    <glyph glyph-name="uni2075" unicode="&#x2075;" horiz-adv-x="626" 
d="M684 1251q19 -57 10 -127q-8 -64 -41 -129q-40 -73 -113.5 -115t-164.5 -42t-155.5 45.5t-86.5 122.5q-4 17 -8 55q-1 17 9 27t26 10h123q23 0 26 -15q1 -2 2 -6t2 -6q0 -4 4 -12q5 -28 25.5 -45t52.5 -17q53 0 84 50q26 37 31 73q3 49 -10 76q-17 49 -72 49t-84 -33
q-21 -24 -45 -24h-127q-34 0 -31 35l56 448q6 35 39 35h466q35 0 29 -35l-10 -90q-6 -35 -39 -35h-307q-12 0 -15 -12l-16 -148q-2 -6 2 -8.5t10 0.5q59 27 117 27q75 0 131 -40t80 -114z" />
    <glyph glyph-name="uni2076" unicode="&#x2076;" horiz-adv-x="643" 
d="M702 1241q13 -47 5 -117q-9 -66 -33 -118q-37 -75 -115 -121.5t-170 -46.5q-91 0 -153 45t-84 123q-16 52 -9 118l45 365q13 104 96.5 165.5t207.5 61.5q118 0 184.5 -61t54.5 -160l-2 -16q-3 -35 -37 -35h-114q-36 0 -33 12l2 12q4 38 -17.5 63t-58.5 25q-42 0 -71 -26
t-33 -68l-13 -94q0 -15 15 -6q52 37 120 37q74 0 133 -42.5t80 -115.5zM485 1032q19 23 25 37q10 17 14 47q4 41 -4 62q-6 28 -27.5 44.5t-52.5 16.5q-43 0 -73 -33q-12 -15 -25 -37q-12 -22 -16 -51q-4 -43 6 -65q6 -25 27 -40.5t51 -15.5q51 0 75 35z" />
    <glyph glyph-name="uni2077" unicode="&#x2077;" horiz-adv-x="589" 
d="M229 854q-17 0 -22.5 12t2.5 29l317 645q7 14 -6 14h-194q-13 0 -13 -12l-8 -65q-6 -35 -39 -35h-80q-31 0 -28 35l26 202q3 35 39 35h488q33 0 30 -35l-14 -102q0 -19 -12 -43l-324 -653q-12 -27 -41 -27h-121z" />
    <glyph glyph-name="uni2078" unicode="&#x2078;" horiz-adv-x="649" 
d="M694 1223q15 -44 8 -121q-11 -66 -34 -109q-36 -70 -112 -112.5t-171 -42.5q-89 0 -153 39.5t-87 113.5q-15 46 -10 113q10 62 41 117q19 38 62 71q16 9 4 17q-25 25 -43 67q-19 51 -11 103q6 54 37 106q38 67 109 103t162 36q92 0 154.5 -37.5t84.5 -103.5
q16 -45 10 -102q-6 -59 -38 -105q-25 -41 -60 -67q-10 -7 0 -17q31 -21 47 -69zM379 1507q-12 -24 -14 -41q-3 -23 6 -45q14 -53 84 -53q57 0 84 35q14 17 20 37l6 24q0 4 1 13.5t1 13.5q-3 20 -14 37q-23 37 -76 37q-68 0 -98 -58zM489 1036q15 22 19 37q6 14 10 43
q3 27 0 51q-6 29 -27.5 46.5t-54.5 17.5q-67 0 -98 -64q-10 -20 -14 -51q-3 -29 4 -59q13 -60 80 -60q50 0 81 39z" />
    <glyph glyph-name="uni2079" unicode="&#x2079;" horiz-adv-x="643" 
d="M727 1548q13 -51 6 -118l-45 -365q-12 -103 -95 -165t-206 -62q-119 0 -186.5 61t-55.5 160l2 16q6 35 39 35h115q33 0 33 -12l-2 -13q-5 -38 16.5 -63t59.5 -25q41 0 69.5 26t34.5 69l10 94q1 7 -2.5 9t-9.5 -3q-55 -37 -121 -37q-74 0 -133 42.5t-82 115.5
q-10 45 -2 117q5 58 33 118q37 75 114.5 121.5t169.5 46.5q91 0 152.5 -45t85.5 -123zM512 1348q2 3 11 15.5t14 20.5q10 17 14 52q6 35 -4 65q-6 25 -27 40t-53 15q-49 0 -76 -34q-20 -30 -24 -37q-13 -30 -13 -47q-7 -33 4 -62q5 -28 26.5 -44.5t53.5 -16.5q44 0 74 33z
" />
    <glyph glyph-name="franc" unicode="&#x20a3;" horiz-adv-x="1247" 
d="M1329 1221q-3 -35 -37 -35h-639q-4 0 -8 -3.5t-4 -8.5l-39 -314q0 -12 10 -12h416q35 0 29 -35l-21 -178q-6 -35 -39 -35h-415q-13 0 -13 -12l-20 -166q-2 -5 1 -8.5t9 -3.5h242q33 0 30 -35l-14 -105q-3 -34 -37 -34h-243q-13 0 -13 -13l-22 -188q-6 -35 -39 -35h-213
q-16 0 -24 9t-5 26l23 188q3 13 -11 13h-90q-31 0 -28 34l12 105q6 35 39 35h88q14 0 14 12l121 977q3 35 37 35h897q32 0 29 -35z" />
    <glyph glyph-name="Euro" unicode="&#x20ac;" horiz-adv-x="1259" 
d="M705 231q68 0 119 38.5t75 105.5q12 33 43 28l205 -38q34 -7 22 -41q-50 -158 -181 -249t-314 -91q-209 0 -320 124.5t-86 331.5l8 72q2 5 -1 8.5t-9 3.5h-114q-35 0 -29 35l10 82q3 35 37 35h115q14 0 14 12l8 60q0 12 -12 12h-115q-34 0 -28 35l10 82q3 34 37 34h116
q13 0 13 13l8 71q26 209 167 332t351 123q186 0 296 -93t118 -255q3 -36 -35 -39l-215 -27q-31 -3 -37 31q-6 62 -48 98.5t-110 36.5q-82 0 -138.5 -54.5t-66.5 -143.5l-10 -80q-3 -13 10 -13h381q18 0 24.5 -11t-1.5 -28l-33 -84q-12 -28 -41 -28h-348q-11 0 -14 -12
l-6 -60q-3 -12 10 -12h313q18 0 24.5 -11t-1.5 -28l-33 -84q-13 -29 -41 -29h-281q-11 0 -14 -12l-10 -84q-11 -88 32.5 -142.5t125.5 -54.5z" />
    <glyph glyph-name="uni20BA" unicode="&#x20ba;" horiz-adv-x="1288" 
d="M948 543q9 35 41 35h213q33 0 27 -35q-14 -82 -49 -158.5t-93 -144t-132.5 -118.5t-173 -82.5t-210.5 -35.5q-172 -4 -258 -4q-31 0 -28 35l61 500q0 13 -12 10l-141 -39q-33 -10 -39 22l-15 95q-3 33 29 43l190 53q10 3 13 12l10 82q0 13 -14 10l-140 -39
q-32 -10 -39 23l-14 94q-3 15 4.5 26.5t22.5 16.5l192 53q10 3 10 13l50 389q3 35 36 35h213q35 0 29 -35l-37 -305q0 -14 13 -11l280 78q33 10 39 -22l14 -92q7 -33 -26 -43l-332 -93q-9 -3 -12 -12l-11 -84q0 -14 15 -10l278 78q15 5 26.5 -1.5t12.5 -21.5l15 -92
q3 -15 -4.5 -26.5t-22.5 -16.5l-332 -92q-10 -3 -10 -12l-45 -361q0 -13 14 -10q144 13 231 92t111 201z" />
    <glyph glyph-name="uni20BD" unicode="&#x20bd;" horiz-adv-x="1392" 
d="M920 571h-277q-11 0 -14 -12l-11 -92q-3 -12 11 -12h364q34 0 31 -35l-12 -98q-6 -35 -39 -35h-365q-14 0 -14 -13l-29 -239q-6 -35 -39 -35h-213q-31 0 -28 35l28 239q2 5 -1 9t-9 4h-153q-32 0 -29 35l12 98q3 35 39 35h152q11 0 14 12l10 92q3 12 -10 12h-152
q-33 0 -30 35l20 164q3 35 39 35h152q11 0 14 12l72 584q3 35 36 35h549q198 0 305 -121.5t82 -315.5q-23 -191 -166.5 -309.5t-338.5 -118.5zM717 1186q-12 0 -12 -12l-43 -357q-3 -12 10 -12h248q97 0 156 49t69 139q11 93 -35.5 143t-142.5 50h-250z" />
    <glyph glyph-name="uni2113" unicode="&#x2113;" horiz-adv-x="995" 
d="M713 250q28 25 47 0l82 -109q19 -26 -4 -49q-111 -108 -303 -108q-152 0 -226.5 93t-54.5 259l6 53q1 6 -2.5 8.5t-9.5 -0.5l-41 -24q-35 -20 -41 16l-25 123q-6 27 21 45l119 70q8 8 8 16l47 387q7 69 36 139.5t77 133.5t121 103.5t157 41.5q128 3 198.5 -82t53.5 -219
q-11 -86 -50 -167.5t-104 -154t-139 -134.5t-170 -126q-7 -5 -10 -16l-19 -170q-22 -178 101 -178q69 0 125 49zM557 985l-16 -162q-1 -9 2.5 -10.5t9.5 4.5q197 161 215 305q6 58 -11 92t-61 31q-109 -11 -139 -260z" />
    <glyph glyph-name="trademark" unicode="&#x2122;" horiz-adv-x="1331" 
d="M182 1298q-33 0 -30 35l8 66q3 35 39 35h479q34 0 31 -35l-9 -66q-6 -35 -38 -35h-154q-11 0 -14 -12l-66 -536q-3 -35 -39 -35h-84q-34 0 -31 35l66 536q3 12 -10 12h-148zM1239 1411q16 23 43 23h90q35 0 29 -35l-80 -649q-3 -35 -37 -35h-86q-35 0 -29 35l52 417
q0 8 -4.5 11t-10.5 -4l-98 -121q-17 -23 -41 -23h-16q-25 0 -37 23l-70 121q-4 11 -11 1q-2 -4 -3 -8l-51 -417q-3 -35 -39 -35h-84q-34 0 -31 35l80 649q6 35 39 35h90q26 0 39 -23l102 -180q1 -5 7 -5t10 5z" />
    <glyph glyph-name="uni2126" unicode="&#x2126;" horiz-adv-x="1261" 
d="M88 0q-34 0 -31 35l23 178q3 35 39 35h71q8 0 11.5 4t-0.5 10q-87 121 -64 299l45 375q29 231 190.5 372.5t395.5 141.5q236 0 363 -142t98 -372l-45 -375q-24 -183 -137 -299q-6 -6 -4 -10t8 -4h73q34 0 31 -35l-22 -178q-3 -35 -39 -35h-414q-34 0 -31 35l25 188
q3 28 33 37q73 22 125.5 90t64.5 162l53 430q14 119 -44.5 190.5t-168.5 71.5q-109 0 -184 -72t-90 -190l-53 -430q-10 -95 26.5 -162.5t102.5 -91.5q27 -9 24 -37l-22 -186q-3 -35 -39 -35h-414z" />
    <glyph glyph-name="estimated" unicode="&#x212e;" horiz-adv-x="1654" 
d="M965 1450q211 0 367.5 -95.5t229.5 -264t48 -379.5q-4 -9 -35 -9h-1194q-11 0 -14 -12l-50 -407q-3 -7 5 -15q78 -101 199 -157t272 -56q180 0 350 92.5t272 243.5q16 25 43 25h12q19 0 24 -11t-5 -30q-114 -175 -306 -283t-399 -108q-209 0 -365 93.5t-229.5 260
t-48.5 373.5q25 210 139.5 379t294.5 264.5t390 95.5zM432 1165q-6 -6 -6 -14l-45 -365q-2 -5 1 -8.5t9 -3.5h983q12 0 15 12l43 363q2 7 -5 14q-78 102 -199 158.5t-272 56.5t-285 -55.5t-239 -157.5z" />
    <glyph glyph-name="oneeighth" unicode="&#x215b;" horiz-adv-x="1593" 
d="M358 608q-3 -35 -36 -35h-115q-32 0 -29 35l80 649q0 13 -10 13l-41 -4q-37 -3 -31 32l8 70q3 27 31 39l43 18q21 9 43 9h125q34 0 31 -35zM1126 1409q19 25 43 25h129q20 0 25.5 -12t-6.5 -29l-942 -1368q-19 -25 -43 -25h-129q-20 0 -25.5 12t6.5 29zM1534 369
q15 -54 6 -121q-7 -60 -33 -109q-36 -70 -111.5 -112.5t-170.5 -42.5q-91 0 -154 39.5t-86 113.5q-19 51 -10 113q6 59 39 117q26 44 63 71q12 9 4 17q-30 30 -43 67q-17 39 -12 103q6 54 37 106q82 139 272 139q92 0 154 -37.5t84 -103.5q18 -49 12 -102q-6 -51 -39 -105
q-23 -39 -59 -67q-11 -8 -2 -17q33 -23 49 -69zM1219 653q-12 -18 -15 -41t6 -45q14 -53 82 -53q57 0 84 35q12 13 23 37l6 24v27q-3 24 -12 37q-23 37 -78 37q-66 0 -96 -58zM1327 182q11 13 21 37q6 14 10 43q3 27 0 51q-8 29 -29.5 46.5t-54.5 17.5q-31 0 -56.5 -17.5
t-39.5 -46.5q-12 -23 -15 -51q-5 -31 4 -59q6 -28 26.5 -44t51.5 -16q54 0 82 39z" />
    <glyph glyph-name="threeeighths" unicode="&#x215c;" horiz-adv-x="1773" 
d="M625 725q-39 -73 -111.5 -115.5t-161.5 -42.5q-92 0 -155.5 47.5t-85.5 128.5q-10 35 -7 84q0 17 9.5 26t25.5 9h115q31 0 31 -33q4 -29 6 -41q16 -59 80 -59q53 0 86 45q24 37 30 90q8 58 -10 99q-18 47 -74 47q-14 0 -43 -11q-32 -16 -47 7l-45 67q-18 24 11 49
l184 142q6 6 5 10t-9 4h-250q-34 0 -31 35l12 90q3 35 37 35h467q34 0 31 -35l-12 -98q-3 -23 -23 -43l-158 -129q-14 -14 3 -17q93 -22 127 -119q15 -60 6 -137q-8 -69 -43 -135zM1307 1409q19 25 43 25h129q20 0 25.5 -12t-7.5 -29l-942 -1368q-19 -25 -43 -25h-129
q-19 0 -24.5 12t6.5 29zM1714 369q16 -47 6 -121q-7 -63 -32 -109q-36 -70 -112 -112.5t-171 -42.5q-89 0 -153 39.5t-87 113.5q-18 56 -10 113q6 55 41 117q22 43 61 71q14 11 5 17q-30 30 -43 67q-18 41 -13 103q8 53 37 106q40 67 111 103t162 36t153.5 -37t85.5 -104
q15 -51 10 -102q-6 -57 -39 -105q-23 -39 -59 -67q-12 -8 0 -17q32 -26 47 -69zM1399 653q-13 -26 -15 -41q-3 -22 7 -45q14 -53 84 -53q54 0 81 35q17 17 23 37l6 24v27q-3 24 -12 37q-23 37 -78 37q-66 0 -96 -58zM1507 182q16 19 21 37q6 14 10 43q3 27 0 51
q-6 29 -28 46.5t-56 17.5q-31 0 -56.5 -17.5t-39.5 -46.5q-12 -23 -15 -51q-3 -35 5 -59q6 -28 26.5 -44t50.5 -16q54 0 82 39z" />
    <glyph glyph-name="fiveeighths" unicode="&#x215d;" horiz-adv-x="1751" 
d="M1284 1409q19 25 43 25h129q19 0 25 -12t-6 -29l-945 -1368q-16 -25 -41 -25h-129q-20 0 -26 12t6 29zM618 717q-41 -73 -113.5 -115.5t-164.5 -42.5q-91 0 -154.5 45t-87.5 123q-4 17 -8 55q-1 17 9 27t28 10h121q22 0 28 -14q0 -6 3 -12q0 -5 4 -13q6 -28 26.5 -44.5
t50.5 -16.5q52 0 86 49q23 33 29 74q6 42 -8 76q-17 49 -74 49q-55 0 -84 -33q-22 -25 -45 -25h-127q-34 0 -28 35l55 449q3 34 37 34h467q33 0 30 -34l-12 -90q-3 -35 -37 -35h-309q-12 0 -12 -13l-19 -147q-1 -6 3 -8.5t10 0.5q56 26 116 26q76 0 131.5 -39.5t79.5 -113.5
q19 -57 10 -127q-8 -64 -41 -129zM1690 369q15 -44 8 -121q-10 -64 -35 -109q-36 -70 -112 -112.5t-171 -42.5q-89 0 -152 39.5t-87 113.5q-16 48 -11 113q10 62 41 117q19 38 62 71q16 9 4 17q-25 25 -43 67q-19 49 -10 103q6 54 37 106q40 67 109.5 103t160.5 36
q92 0 155 -37.5t85 -103.5q18 -50 10 -102q-6 -55 -37 -105q-30 -43 -62 -67q-10 -7 0 -17q32 -22 48 -69zM1376 653q-13 -20 -16 -41q-3 -23 6 -45q6 -24 28.5 -38.5t55.5 -14.5q57 0 84 35q14 17 20 37q7 14 7 24q2 8 2 27q-3 18 -15 37q-23 37 -75 37q-70 0 -97 -58z
M1485 182q12 17 20 37q4 13 8 43q3 27 0 51q-6 29 -27 46.5t-54 17.5t-59 -17.5t-40 -46.5q-10 -20 -14 -51q-3 -33 6 -59q5 -28 25.5 -44t52.5 -16q51 0 82 39z" />
    <glyph glyph-name="seveneighths" unicode="&#x215e;" horiz-adv-x="1644" 
d="M356 600q-12 -27 -41 -27h-120q-17 0 -23 12t2 29l318 646q7 14 -7 14h-194q-12 0 -12 -12l-9 -66q-6 -35 -39 -35h-79q-32 0 -29 35l27 203q6 35 38 35h488q34 0 31 -35l-13 -103q-3 -21 -14 -43zM1178 1409q19 25 43 25h129q20 0 25.5 -12t-7.5 -29l-942 -1368
q-19 -25 -43 -25h-129q-19 0 -24.5 12t6.5 29zM1585 369q16 -47 6 -121q-7 -63 -32 -109q-36 -70 -112 -112.5t-171 -42.5q-91 0 -154 39.5t-86 113.5q-18 56 -10 113q6 55 41 117q22 43 61 71q14 11 5 17q-30 30 -43 67q-18 41 -13 103q8 53 37 106q40 67 110.5 103
t161.5 36t154 -37t86 -104q15 -51 10 -102q-6 -57 -39 -105q-23 -39 -59 -67q-12 -8 0 -17q32 -26 47 -69zM1270 653q-13 -26 -15 -41q-3 -22 7 -45q14 -53 81 -53q57 0 84 35q13 13 23 37l6 24v27q-3 24 -12 37q-23 37 -78 37q-66 0 -96 -58zM1378 182q16 19 21 37
q6 14 10 43q3 27 0 51q-6 29 -28 46.5t-56 17.5q-31 0 -56.5 -17.5t-39.5 -46.5q-11 -23 -15 -51q-3 -35 5 -59q6 -28 26.5 -44t50.5 -16q54 0 82 39z" />
    <glyph glyph-name="partialdiff" unicode="&#x2202;" horiz-adv-x="1181" 
d="M1010 1268q59 -84 88.5 -202.5t27.5 -234t-20 -231.5q-23 -128 -70.5 -236t-121 -195t-182.5 -136t-243 -49q-214 0 -327 123t-86 342q14 117 65 209.5t125.5 148.5t162.5 84.5t181 26.5q110 -3 209 -50q15 -6 15 11q-6 123 -54 196q-54 85 -157 94q-111 7 -240 -59
q-15 -8 -27.5 -3.5t-15.5 19.5l-47 193q-10 32 22 45q186 87 359 80q219 -9 336 -176zM532 231q105 0 175.5 84t103.5 242q2 6 -2 14q-30 55 -83.5 85.5t-121.5 27.5q-92 -2 -164 -65t-84 -162q-12 -97 37.5 -161.5t138.5 -64.5z" />
    <glyph glyph-name="uni2206" unicode="&#x2206;" horiz-adv-x="1312" 
d="M41 0q-32 0 -29 35l23 188q3 20 14 43l627 1141q17 27 43 27h147q25 0 35 -27l348 -1143q6 -25 4 -43l-22 -186q-6 -35 -39 -35h-1151zM317 262q-3 -7 0.5 -10.5t8.5 -3.5h643q16 0 10 14l-227 785q-1 5 -4 6.5t-6 0t-5 -6.5z" />
    <glyph glyph-name="product" unicode="&#x220f;" horiz-adv-x="1251" 
d="M1270 1638q34 0 28 -34l-241 -1979q-3 -35 -39 -35h-211q-34 0 -31 35l215 1753q3 13 -10 13h-436q-12 0 -15 -13l-215 -1753q-3 -35 -39 -35h-210q-34 0 -31 35l244 1979q3 34 36 34h955z" />
    <glyph glyph-name="summation" unicode="&#x2211;" horiz-adv-x="1181" 
d="M66 -410q-34 0 -31 35l24 191q3 23 17 43l545 786q7 10 0 17l-365 651q-11 19 -8 43l22 188q6 35 39 35h920q34 0 28 -35l-20 -178q-6 -35 -39 -35h-653q-17 0 -10 -14l376 -641q13 -21 -4 -47l-553 -776q-4 -6 -2 -10.5t8 -4.5h656q31 0 28 -35l-22 -178q-3 -35 -37 -35
h-919z" />
    <glyph glyph-name="minus" unicode="&#x2212;" horiz-adv-x="964" 
d="M113 492q-34 0 -31 34l22 179q3 34 39 34h783q31 0 28 -34l-22 -179q-3 -34 -37 -34h-782z" />
    <glyph glyph-name="uni2215" unicode="&#x2215;" horiz-adv-x="1046" 
d="M43 0q-19 0 -24.5 12t4.5 29l851 1368q16 25 44 25h182q20 0 25.5 -12t-5.5 -29l-850 -1368q-12 -25 -41 -25h-186z" />
    <glyph glyph-name="uni2219" unicode="&#x2219;" horiz-adv-x="628" 
d="M317 342q-107 0 -173 78.5t-52 187.5q13 112 98 188t193 76q106 0 171 -76t52 -188q-12 -109 -97.5 -187.5t-191.5 -78.5z" />
    <glyph glyph-name="radical" unicode="&#x221a;" horiz-adv-x="1607" 
d="M279 -410q-27 0 -33 29l-189 774q-6 33 27 43l207 70q32 13 41 -23l88 -407q3 -8 8 -7.5t6 9.5l578 1519q10 31 43 31h577q35 0 29 -35l-21 -178q-6 -35 -38 -35h-383q-10 0 -15 -10l-667 -1749q-14 -31 -41 -31h-217z" />
    <glyph glyph-name="infinity" unicode="&#x221e;" horiz-adv-x="1523" 
d="M1186 1032q160 0 250.5 -108.5t70.5 -270.5q-20 -164 -138.5 -271.5t-283.5 -107.5q-103 0 -175 45t-136 136q-2 5 -7 5t-9 -5q-173 -181 -346 -181q-152 0 -243 111t-71 272q20 160 138 267.5t274 107.5q181 0 303 -178q6 -10 16 0q85 87 170.5 132.5t186.5 45.5z
M440 498q53 0 97.5 34.5t113.5 116.5q8 8 2 17q-45 80 -79.5 111.5t-86.5 31.5q-69 0 -116.5 -43t-55.5 -109q-9 -69 27 -114t98 -45zM1114 498q73 0 120 42.5t56 112.5q8 69 -27.5 112.5t-101.5 43.5q-56 0 -109.5 -35t-119.5 -112q-7 -11 0 -23q44 -77 84 -109t98 -32z
" />
    <glyph glyph-name="integral" unicode="&#x222b;" horiz-adv-x="837" 
d="M-2 -410q-36 0 -33 35l19 146q3 34 39 34h59q68 1 99 34t42 108l154 1163q11 83 32.5 138.5t56.5 93.5t94 58t133.5 27.5t185.5 6.5q35 0 32 -35l-18 -146q-3 -34 -39 -34h-57q-69 -1 -101 -34t-43 -108l-153 -1163q-9 -69 -25 -118.5t-43.5 -87t-63.5 -60t-91.5 -36.5
t-121 -18.5t-157.5 -3.5z" />
    <glyph glyph-name="approxequal" unicode="&#x2248;" horiz-adv-x="1060" 
d="M748 651q-85 0 -168 56q-95 61 -158 61q-77 0 -133 -66q-21 -27 -47 -8l-105 80q-22 19 -8 45q46 88 133 143.5t180 55.5q78 0 162 -53q7 -4 29 -18t31.5 -19t27.5 -14t33.5 -12t32.5 -3q61 0 116 66q25 29 50 10l125 -90q26 -18 8 -45q-50 -85 -134.5 -137t-174.5 -52z
M694 215q-86 0 -168 55q-30 19 -46 28.5t-49 21.5t-62 12q-77 0 -133 -66q-22 -28 -48 -8l-104 80q-22 19 -8 45q44 88 131.5 143.5t181.5 55.5q78 0 160 -54q8 -4 30 -18t32 -19t28 -13.5t33.5 -11.5t32.5 -3q62 0 116 65q25 29 49 11l125 -90q27 -19 9 -46
q-50 -85 -134.5 -136.5t-175.5 -51.5z" />
    <glyph glyph-name="notequal" unicode="&#x2260;" horiz-adv-x="964" 
d="M961 750q-6 -35 -39 -35h-260q-12 0 -15 -10l-67 -121q-6 -15 8 -15h317q32 0 29 -34l-23 -179q-3 -34 -37 -34h-430q-10 0 -14 -11l-88 -157q-17 -27 -43 -27h-96q-20 0 -26 12t5 29l76 139q9 15 -8 15h-160q-32 0 -29 34l23 179q3 34 37 34h272q10 0 17 11l65 120
q9 15 -8 15h-328q-34 0 -28 35l20 178q6 35 39 35h440q10 0 17 10l84 153q17 27 43 27h96q20 0 25.5 -12t-3.5 -29l-75 -135q-6 -14 8 -14h147q34 0 31 -35z" />
    <glyph glyph-name="lessequal" unicode="&#x2264;" horiz-adv-x="964" 
d="M913 360q-3 -20 -15.5 -27t-27.5 1l-741 356q-26 13 -20 41l22 193q3 27 31 41l829 356q17 8 27.5 0.5t7.5 -27.5l-25 -200q-3 -28 -28 -39l-547 -219q-7 -3 -7.5 -8.5t5.5 -8.5l491 -217q26 -12 23 -39zM872 35q-3 -35 -38 -35h-783q-34 0 -28 35l20 178q6 35 39 35h782
q34 0 31 -35z" />
    <glyph glyph-name="greaterequal" unicode="&#x2265;" horiz-adv-x="964" 
d="M98 334q-17 -8 -27.5 -1t-9.5 27l25 203q6 28 31 39l547 217q7 3 7.5 8.5t-5.5 8.5l-492 219q-25 11 -22 39l24 200q3 20 15.5 27.5t27.5 -0.5l742 -356q23 -13 20 -41l-23 -193q-3 -28 -30 -41zM51 0q-34 0 -28 35l20 178q6 35 39 35h782q34 0 31 -35l-23 -178
q-3 -35 -38 -35h-783z" />
    <glyph glyph-name="lozenge" unicode="&#x25ca;" horiz-adv-x="1081" 
d="M420 -111q-27 0 -37 27l-268 776q-9 25 6 49l461 779q15 24 43 24h131q28 0 37 -24l270 -779q9 -25 -6 -49l-459 -776q-17 -27 -43 -27h-135zM518 211q3 -6 8.5 -6t8.5 6l276 498q2 4 2 16l-154 498q-3 6 -8 6t-8 -6l-278 -498q-3 -6 -3 -16z" />
    <glyph glyph-name="i.loclTRK" horiz-adv-x="479" 
d="M336 1180q-58 0 -89.5 36.5t-23.5 96.5t48 96.5t98 36.5q57 0 87 -36.5t23 -96.5t-46.5 -96.5t-96.5 -36.5zM92 0q-34 0 -31 35l121 983q6 35 39 35h213q32 0 29 -35l-121 -983q-3 -35 -39 -35h-211z" />
    <glyph glyph-name="a.alt" horiz-adv-x="1048" 
d="M604 1069q195 0 308 -100t94 -250l-84 -684q-3 -35 -37 -35h-213q-34 0 -31 35l6 49q1 7 -2.5 8.5t-9.5 -4.5q-104 -104 -285 -104q-154 0 -237.5 77.5t-65.5 229.5q20 157 138 244.5t317 87.5h200q13 0 13 12l6 43q8 67 -28 105t-113 38q-120 0 -160 -78
q-15 -29 -43 -26l-217 28q-35 4 -29 29q31 129 162 212t311 83zM457 199q86 0 151 47t74 121l10 71q0 13 -10 13h-141q-91 0 -146.5 -35t-62.5 -99q-7 -55 27.5 -86.5t97.5 -31.5z" />
    <glyph glyph-name="a.sc" horiz-adv-x="1138" 
d="M813 0q-29 0 -35 29l-22 131q0 10 -11 10h-391q-10 0 -12 -10l-55 -131q-13 -29 -41 -29h-211q-17 0 -23.5 11t0.5 28l492 1114q12 29 43 29h254q31 0 37 -29l217 -1114q4 -17 -5 -28t-26 -11h-211zM442 408q-6 -15 9 -15h256q13 0 10 15l-72 464q-1 5 -3.5 6.5t-6 0
t-6.5 -6.5z" />
    <glyph glyph-name="aacute.sc" horiz-adv-x="1138" 
d="M934 1556q21 0 25.5 -13t-9.5 -30l-149 -186q-19 -22 -45 -22h-166q-20 0 -25.5 11t6.5 30l119 186q15 24 43 24h201zM813 0q-29 0 -35 29l-22 131q0 10 -11 10h-391q-10 0 -12 -10l-55 -131q-13 -29 -41 -29h-211q-17 0 -23.5 11t0.5 28l492 1114q12 29 43 29h254
q31 0 37 -29l217 -1114q4 -17 -5 -28t-26 -11h-211zM442 408q-6 -15 9 -15h256q13 0 10 15l-72 464q-1 5 -3.5 6.5t-6 0t-6.5 -6.5z" />
    <glyph glyph-name="abreve.sc" horiz-adv-x="1138" 
d="M678 1241q-93 0 -155 59.5t-64 149.5q0 18 10.5 27.5t26.5 9.5h79q27 0 33 -33q4 -37 28 -59.5t58 -22.5q37 0 67 22.5t44 59.5q11 33 39 33h80q37 0 28 -35q-23 -91 -100.5 -151t-173.5 -60zM813 0q-29 0 -35 29l-22 131q0 10 -11 10h-391q-10 0 -12 -10l-55 -131
q-13 -29 -41 -29h-211q-17 0 -23.5 11t0.5 28l492 1114q12 29 43 29h254q31 0 37 -29l217 -1114q4 -17 -5 -28t-26 -11h-211zM442 408q-6 -15 9 -15h256q13 0 10 15l-72 464q-1 5 -3.5 6.5t-6 0t-6.5 -6.5z" />
    <glyph glyph-name="uni01CE.sc" horiz-adv-x="1138" 
d="M842 1305q-20 -23 -43 -23h-236q-24 0 -37 23l-102 194q-8 17 -0.5 30t27.5 13h143q24 0 37 -22l59 -117q3 -6 8.5 -6t8.5 6l88 117q19 22 43 22h141q20 0 25 -13t-9 -30zM813 0q-29 0 -35 29l-22 131q0 10 -11 10h-391q-10 0 -12 -10l-55 -131q-13 -29 -41 -29h-211
q-17 0 -23.5 11t0.5 28l492 1114q12 29 43 29h254q31 0 37 -29l217 -1114q4 -17 -5 -28t-26 -11h-211zM442 408q-6 -15 9 -15h256q13 0 10 15l-72 464q-1 5 -3.5 6.5t-6 0t-6.5 -6.5z" />
    <glyph glyph-name="acircumflex.sc" horiz-adv-x="1138" 
d="M711 1438q-1 6 -7 6t-10 -6l-88 -117q-16 -23 -41 -23h-147q-21 0 -26 13t9 30l164 199q15 21 43 21h215q27 0 39 -21l119 -199q10 -17 1.5 -30t-28.5 -13h-147q-24 0 -37 23zM813 0q-29 0 -35 29l-22 131q0 10 -11 10h-391q-10 0 -12 -10l-55 -131q-13 -29 -41 -29h-211
q-17 0 -23.5 11t0.5 28l492 1114q12 29 43 29h254q31 0 37 -29l217 -1114q4 -17 -5 -28t-26 -11h-211zM442 408q-6 -15 9 -15h256q13 0 10 15l-72 464q-1 5 -3.5 6.5t-6 0t-6.5 -6.5z" />
    <glyph glyph-name="adieresis.sc" horiz-adv-x="1138" 
d="M496 1298q-62 0 -97 40t-26 104q7 64 51 104.5t106 40.5q63 0 96 -40t25 -105t-50 -104.5t-105 -39.5zM877 1298q-64 0 -97.5 39.5t-25.5 104.5t51 105t106 40t97 -40t26 -105q-9 -65 -51.5 -104.5t-105.5 -39.5zM813 0q-29 0 -35 29l-22 131q0 10 -11 10h-391
q-10 0 -12 -10l-55 -131q-13 -29 -41 -29h-211q-17 0 -23.5 11t0.5 28l492 1114q12 29 43 29h254q31 0 37 -29l217 -1114q4 -17 -5 -28t-26 -11h-211zM442 408q-6 -15 9 -15h256q13 0 10 15l-72 464q-1 5 -3.5 6.5t-6 0t-6.5 -6.5z" />
    <glyph glyph-name="agrave.sc" horiz-adv-x="1138" 
d="M795 1346q7 -19 -1 -30t-28 -11h-166q-24 0 -37 22l-104 186q-11 17 -4 30t28 13h201q28 0 37 -24zM813 0q-29 0 -35 29l-22 131q0 10 -11 10h-391q-10 0 -12 -10l-55 -131q-13 -29 -41 -29h-211q-17 0 -23.5 11t0.5 28l492 1114q12 29 43 29h254q31 0 37 -29l217 -1114
q4 -17 -5 -28t-26 -11h-211zM442 408q-6 -15 9 -15h256q13 0 10 15l-72 464q-1 5 -3.5 6.5t-6 0t-6.5 -6.5z" />
    <glyph glyph-name="amacron.sc" horiz-adv-x="1138" 
d="M971 1507q31 0 28 -34l-16 -125q-3 -35 -37 -35h-516q-34 0 -31 35l17 125q3 34 37 34h518zM813 0q-29 0 -35 29l-22 131q0 10 -11 10h-391q-10 0 -12 -10l-55 -131q-13 -29 -41 -29h-211q-17 0 -23.5 11t0.5 28l492 1114q12 29 43 29h254q31 0 37 -29l217 -1114
q4 -17 -5 -28t-26 -11h-211zM442 408q-6 -15 9 -15h256q13 0 10 15l-72 464q-1 5 -3.5 6.5t-6 0t-6.5 -6.5z" />
    <glyph glyph-name="aogonek.sc" horiz-adv-x="1157" 
d="M991 -227q36 9 39 -25v-82q0 -32 -29 -41q-40 -13 -82.5 -17t-87.5 3t-77.5 39t-40.5 86q-16 133 133 250q7 4 5.5 9t-9.5 5h-29q-29 0 -35 29l-22 131q0 10 -11 10h-391q-10 0 -12 -10l-55 -131q-13 -29 -41 -29h-211q-17 0 -23.5 11t0.5 28l492 1114q12 29 43 29h254
q31 0 37 -29l217 -1114q3 -11 4.5 -20.5t2 -13.5t-0.5 -5l-12 -4q-155 -104 -146 -180q4 -30 28.5 -40.5t59.5 -2.5zM442 408q-6 -15 9 -15h256q13 0 10 15l-72 464q-1 5 -3.5 6.5t-6 0t-6.5 -6.5z" />
    <glyph glyph-name="aring.sc" horiz-adv-x="1138" 
d="M684 1276q-95 0 -151 65.5t-44 161.5q10 95 83 161.5t167 66.5q92 0 149 -66.5t46 -161.5q-12 -95 -85 -161t-165 -66zM723 1602q-40 0 -71.5 -28.5t-35.5 -70.5q-6 -40 18 -68t64 -28t71.5 28t35.5 68q4 42 -19.5 70.5t-62.5 28.5zM813 0q-29 0 -35 29l-22 131
q0 10 -11 10h-391q-10 0 -12 -10l-55 -131q-13 -29 -41 -29h-211q-17 0 -23.5 11t0.5 28l492 1114q12 29 43 29h254q31 0 37 -29l217 -1114q4 -17 -5 -28t-26 -11h-211zM442 408q-6 -15 9 -15h256q13 0 10 15l-72 464q-1 5 -3.5 6.5t-6 0t-6.5 -6.5z" />
    <glyph glyph-name="atilde.sc" horiz-adv-x="1138" 
d="M623 1389q-43 0 -78 -35q-24 -31 -45 -11l-64 50q-24 18 -8 47q35 67 88 101t111 34q34 0 61 -12t62 -35q62 -37 90 -37q41 0 73 37q25 28 48 10l65 -49q22 -19 4 -49q-43 -67 -99.5 -101t-109.5 -34q-56 0 -125 51q-44 33 -73 33zM813 0q-29 0 -35 29l-22 131
q0 10 -11 10h-391q-10 0 -12 -10l-55 -131q-13 -29 -41 -29h-211q-17 0 -23.5 11t0.5 28l492 1114q12 29 43 29h254q31 0 37 -29l217 -1114q4 -17 -5 -28t-26 -11h-211zM442 408q-6 -15 9 -15h256q13 0 10 15l-72 464q-1 5 -3.5 6.5t-6 0t-6.5 -6.5z" />
    <glyph glyph-name="ae.sc" horiz-adv-x="1656" 
d="M1681 969q-3 -35 -36 -35h-512q-12 0 -15 -12l-22 -187q-3 -12 10 -12h317q34 0 31 -35l-22 -178q-3 -35 -39 -35h-318q-12 0 -12 -12l-27 -203q0 -12 11 -12h514q34 0 28 -35l-22 -178q-3 -35 -37 -35h-772q-34 0 -31 35l16 123q0 12 -12 12h-311q-11 0 -14 -8l-84 -137
q-14 -25 -43 -25h-238q-19 0 -25 12t4 29l701 1116q16 25 43 25h911q32 0 29 -35zM557 408q-9 -15 6 -15h197q12 0 12 13l51 411q2 9 -3 11t-9 -7z" />
    <glyph glyph-name="b.sc" horiz-adv-x="1054" 
d="M874 616q-8 -3 -8.5 -8t6.5 -8q136 -81 115 -264q-15 -117 -82.5 -194t-163.5 -109.5t-219 -32.5h-442q-34 0 -31 35l137 1112q3 35 39 35h428q207 0 305 -78t76 -254q-21 -166 -160 -234zM453 934q-12 0 -15 -12l-22 -195q-3 -12 10 -12h192q55 0 93 30.5t43 77.5
q7 51 -23 81t-86 30h-192zM575 250q56 0 93 31.5t43 85.5q6 51 -23.5 81.5t-83.5 30.5h-207q-11 0 -14 -12l-25 -205q-3 -12 11 -12h206z" />
    <glyph glyph-name="c.sc" horiz-adv-x="1032" 
d="M481 -14q-207 0 -316.5 125.5t-84.5 334.5l37 293q26 207 166 332t346 125q204 0 314 -119t87 -315q-3 -19 -35 -23l-217 -12q-33 -3 -33 10l3 11q10 91 -30.5 144.5t-117.5 55.5q-81 1 -136 -53t-67 -147l-39 -314q-11 -91 31 -146t123 -55q77 0 132 55.5t65 145.5
q3 24 36 21l211 -13q33 -4 33 -10l-2 -8q-25 -198 -163.5 -318t-342.5 -120z" />
    <glyph glyph-name="cacute.sc" horiz-adv-x="1032" 
d="M547 1319q-19 0 -24 11t5 30l121 186q16 25 43 25h201q20 0 25 -13t-9 -30l-151 -187q-16 -22 -43 -22h-168zM481 -14q-207 0 -316.5 125.5t-84.5 334.5l37 293q26 207 166 332t346 125q204 0 314 -119t87 -315q-3 -19 -35 -23l-217 -12q-33 -3 -33 10l3 11
q10 91 -30.5 144.5t-117.5 55.5q-81 1 -136 -53t-67 -147l-39 -314q-11 -91 31 -146t123 -55q77 0 132 55.5t65 145.5q3 24 36 21l211 -13q33 -4 33 -10l-2 -8q-25 -198 -163.5 -318t-342.5 -120z" />
    <glyph glyph-name="ccaron.sc" horiz-adv-x="1032" 
d="M520 1296q-24 0 -37 23l-100 194q-9 17 -1.5 30t28.5 13h143q24 0 37 -22l59 -117q1 -6 7 -6t10 6l86 117q19 22 43 22h141q21 0 25.5 -13t-9.5 -30l-153 -194q-16 -23 -41 -23h-238zM481 -14q-207 0 -316.5 125.5t-84.5 334.5l37 293q26 207 166 332t346 125
q204 0 314 -119t87 -315q-3 -19 -35 -23l-217 -12q-33 -3 -33 10l3 11q10 91 -30.5 144.5t-117.5 55.5q-81 1 -136 -53t-67 -147l-39 -314q-11 -91 31 -146t123 -55q77 0 132 55.5t65 145.5q3 24 36 21l211 -13q33 -4 33 -10l-2 -8q-25 -198 -163.5 -318t-342.5 -120z" />
    <glyph glyph-name="ccedilla.sc" horiz-adv-x="1032" 
d="M1028 752q0 -9 -33 -13l-217 -12q-33 -3 -33 10l3 11q10 91 -30.5 144.5t-117.5 55.5q-81 1 -136 -53t-67 -147l-39 -314q-11 -91 31 -146t123 -55q77 0 132 55.5t65 145.5q3 24 36 21l211 -13q33 -4 33 -10l-2 -8q-22 -176 -136.5 -292.5t-285.5 -139.5q-17 -4 -6 -15
q92 -108 49 -225q-22 -54 -62.5 -86t-87.5 -38.5t-89 -2.5t-78 17q-25 8 -19 41l21 81q9 34 45 25q32 -8 59 2.5t39 40.5q26 71 -84 166q-8 4 -14 6q-139 40 -208.5 156.5t-49.5 285.5l37 293q26 207 166 332t346 125q204 0 314 -119t87 -315z" />
    <glyph glyph-name="cdotaccent.sc" horiz-adv-x="1032" 
d="M643 1300q-58 0 -89.5 37t-23.5 97q6 60 46.5 96.5t99.5 36.5q57 0 87 -36.5t23 -96.5q-8 -60 -47 -97t-96 -37zM481 -14q-207 0 -316.5 125.5t-84.5 334.5l37 293q26 207 166 332t346 125q204 0 314 -119t87 -315q-3 -19 -35 -23l-217 -12q-33 -3 -33 10l3 11
q10 91 -30.5 144.5t-117.5 55.5q-81 1 -136 -53t-67 -147l-39 -314q-11 -91 31 -146t123 -55q77 0 132 55.5t65 145.5q3 24 36 21l211 -13q33 -4 33 -10l-2 -8q-25 -198 -163.5 -318t-342.5 -120z" />
    <glyph glyph-name="d.sc" horiz-adv-x="1050" 
d="M80 0q-34 0 -31 35l137 1112q3 35 39 35h420q200 0 310.5 -102.5t88.5 -270.5l-53 -436q-20 -167 -155.5 -270t-335.5 -103h-420zM358 260q-2 -5 1.5 -8.5t9.5 -3.5h172q68 0 117 48t59 124l43 342q9 78 -28.5 125t-108.5 47h-170q-12 0 -15 -12z" />
    <glyph glyph-name="eth.sc" horiz-adv-x="1130" 
d="M725 1182q200 0 310.5 -102.5t88.5 -270.5l-53 -436q-22 -167 -157 -270t-334 -103h-420q-34 0 -31 35l57 463q0 12 -10 12h-35q-31 0 -28 35l14 123q6 34 39 34h33q11 0 14 13l53 432q3 35 37 35h422zM797 420l41 342q10 78 -27.5 125t-108.5 47h-170q-11 0 -14 -12
l-24 -207q-2 -5 1 -9t9 -4h96q34 0 31 -34l-17 -123q-3 -35 -36 -35h-99q-12 0 -12 -12l-31 -238q0 -12 13 -12h172q68 0 117 48t59 124z" />
    <glyph glyph-name="dcaron.sc" horiz-adv-x="1050" 
d="M502 1290q-24 0 -37 23l-100 194q-10 17 -2.5 30t28.5 13h144q23 0 36 -22l60 -117q1 -6 6 -6t8 6l88 117q19 22 43 22h142q21 0 25.5 -13t-9.5 -30l-154 -194q-16 -23 -41 -23h-237zM80 0q-34 0 -31 35l137 1112q3 35 39 35h420q200 0 310.5 -102.5t88.5 -270.5
l-53 -436q-20 -167 -155.5 -270t-335.5 -103h-420zM358 260q-2 -5 1.5 -8.5t9.5 -3.5h172q68 0 117 48t59 124l43 342q9 78 -28.5 125t-108.5 47h-170q-12 0 -15 -12z" />
    <glyph glyph-name="dcroat.sc" horiz-adv-x="1130" 
d="M725 1182q200 0 310.5 -102.5t88.5 -270.5l-53 -436q-22 -167 -157 -270t-334 -103h-420q-34 0 -31 35l57 463q0 12 -10 12h-35q-31 0 -28 35l14 123q6 34 39 34h33q11 0 14 13l53 432q3 35 37 35h422zM797 420l41 342q10 78 -27.5 125t-108.5 47h-170q-11 0 -14 -12
l-24 -207q-2 -5 1 -9t9 -4h96q34 0 31 -34l-17 -123q-3 -35 -36 -35h-99q-12 0 -12 -12l-31 -238q0 -12 13 -12h172q68 0 117 48t59 124z" />
    <glyph glyph-name="e.sc" horiz-adv-x="980" 
d="M1010 969q-6 -35 -39 -35h-518q-12 0 -15 -12l-22 -187q0 -12 10 -12h326q33 0 30 -35l-22 -178q-3 -35 -39 -35h-326q-12 0 -12 -12l-25 -203q-3 -12 11 -12h518q34 0 28 -35l-20 -178q-6 -35 -39 -35h-776q-34 0 -31 35l137 1112q3 35 39 35h776q35 0 29 -35z" />
    <glyph glyph-name="eacute.sc" horiz-adv-x="980" 
d="M885 1579q21 0 25.5 -13t-9.5 -30l-149 -186q-20 -23 -45 -23h-166q-20 0 -25.5 11t6.5 30l119 186q16 25 43 25h201zM1010 969q-6 -35 -39 -35h-518q-12 0 -15 -12l-22 -187q0 -12 10 -12h326q33 0 30 -35l-22 -178q-3 -35 -39 -35h-326q-12 0 -12 -12l-25 -203
q-3 -12 11 -12h518q34 0 28 -35l-20 -178q-6 -35 -39 -35h-776q-34 0 -31 35l137 1112q3 35 39 35h776q35 0 29 -35z" />
    <glyph glyph-name="ecaron.sc" horiz-adv-x="980" 
d="M793 1327q-19 -22 -43 -22h-236q-24 0 -37 22l-102 195q-8 17 -0.5 30t28.5 13h142q26 0 39 -23l57 -117q3 -6 8 -6t8 6l88 117q20 23 43 23h142q20 0 25 -13t-9 -30zM1010 969q-6 -35 -39 -35h-518q-12 0 -15 -12l-22 -187q0 -12 10 -12h326q33 0 30 -35l-22 -178
q-3 -35 -39 -35h-326q-12 0 -12 -12l-25 -203q-3 -12 11 -12h518q34 0 28 -35l-20 -178q-6 -35 -39 -35h-776q-34 0 -31 35l137 1112q3 35 39 35h776q35 0 29 -35z" />
    <glyph glyph-name="uni0229.sc" horiz-adv-x="980" 
d="M1010 969q-6 -35 -39 -35h-518q-12 0 -15 -12l-22 -187q0 -12 10 -12h326q33 0 30 -35l-22 -178q-3 -35 -39 -35h-326q-12 0 -12 -12l-25 -203q-3 -12 11 -12h518q34 0 28 -35l-20 -178q-6 -35 -39 -35h-276q-8 0 -10 -4t3 -10q88 -107 43 -219q-21 -54 -61 -86t-87 -39
t-89 -3t-78 17q-25 8 -18 41l20 82q9 33 43 24q34 -8 61 2.5t39 40.5q23 66 -65 148q-6 6 -14 6h-287q-34 0 -31 35l137 1112q3 35 39 35h776q35 0 29 -35z" />
    <glyph glyph-name="ecircumflex.sc" horiz-adv-x="980" 
d="M662 1460q-2 6 -7 6t-10 -6l-86 -117q-19 -22 -43 -22h-147q-21 0 -26 13t9 30l164 199q17 20 43 20h215q28 0 39 -20l119 -199q11 -17 3 -30t-30 -13h-147q-24 0 -37 22zM1010 969q-6 -35 -39 -35h-518q-12 0 -15 -12l-22 -187q0 -12 10 -12h326q33 0 30 -35l-22 -178
q-3 -35 -39 -35h-326q-12 0 -12 -12l-25 -203q-3 -12 11 -12h518q34 0 28 -35l-20 -178q-6 -35 -39 -35h-776q-34 0 -31 35l137 1112q3 35 39 35h776q35 0 29 -35z" />
    <glyph glyph-name="edieresis.sc" horiz-adv-x="980" 
d="M446 1321q-62 0 -96.5 39.5t-25.5 103.5q7 64 51 105t106 41q63 0 96.5 -40.5t24.5 -105.5q-8 -65 -50.5 -104t-105.5 -39zM827 1321q-64 0 -97 39t-25 104t51 105.5t106 40.5t97 -40.5t26 -105.5q-9 -65 -52 -104t-106 -39zM1010 969q-6 -35 -39 -35h-518q-12 0 -15 -12
l-22 -187q0 -12 10 -12h326q33 0 30 -35l-22 -178q-3 -35 -39 -35h-326q-12 0 -12 -12l-25 -203q-3 -12 11 -12h518q34 0 28 -35l-20 -178q-6 -35 -39 -35h-776q-34 0 -31 35l137 1112q3 35 39 35h776q35 0 29 -35z" />
    <glyph glyph-name="edotaccent.sc" horiz-adv-x="980" 
d="M635 1309q-58 0 -89.5 36.5t-23.5 96.5t48 96.5t98 36.5q57 0 87 -36.5t23 -96.5q-6 -60 -46 -96.5t-97 -36.5zM1010 969q-6 -35 -39 -35h-518q-12 0 -15 -12l-22 -187q0 -12 10 -12h326q33 0 30 -35l-22 -178q-3 -35 -39 -35h-326q-12 0 -12 -12l-25 -203q-3 -12 11 -12
h518q34 0 28 -35l-20 -178q-6 -35 -39 -35h-776q-34 0 -31 35l137 1112q3 35 39 35h776q35 0 29 -35z" />
    <glyph glyph-name="egrave.sc" horiz-adv-x="980" 
d="M745 1368q7 -19 -0.5 -30t-27.5 -11h-166q-24 0 -37 23l-104 186q-11 17 -4 30t28 13h201q28 0 37 -25zM1010 969q-6 -35 -39 -35h-518q-12 0 -15 -12l-22 -187q0 -12 10 -12h326q33 0 30 -35l-22 -178q-3 -35 -39 -35h-326q-12 0 -12 -12l-25 -203q-3 -12 11 -12h518
q34 0 28 -35l-20 -178q-6 -35 -39 -35h-776q-34 0 -31 35l137 1112q3 35 39 35h776q35 0 29 -35z" />
    <glyph glyph-name="emacron.sc" horiz-adv-x="980" 
d="M922 1530q31 0 28 -35l-14 -125q-6 -35 -39 -35h-516q-34 0 -31 35l17 125q3 35 36 35h519zM1010 969q-6 -35 -39 -35h-518q-12 0 -15 -12l-22 -187q0 -12 10 -12h326q33 0 30 -35l-22 -178q-3 -35 -39 -35h-326q-12 0 -12 -12l-25 -203q-3 -12 11 -12h518q34 0 28 -35
l-20 -178q-6 -35 -39 -35h-776q-34 0 -31 35l137 1112q3 35 39 35h776q35 0 29 -35z" />
    <glyph glyph-name="eogonek.sc" horiz-adv-x="980" 
d="M1010 969q-6 -35 -39 -35h-518q-12 0 -15 -12l-22 -187q0 -12 10 -12h326q33 0 30 -35l-22 -178q-3 -35 -39 -35h-326q-12 0 -12 -12l-25 -203q-3 -12 11 -12h518q34 0 28 -35l-20 -178q-6 -35 -39 -35h-311q-8 0 -17 -6q-113 -82 -104 -150q4 -30 28.5 -40.5t59.5 -2.5
q36 9 39 -24v-82q0 -32 -29 -41q-40 -13 -82.5 -17t-87.5 2.5t-78 38.5t-41 86q-16 116 99 222q4 3 5 6.5t-1.5 5.5t-7.5 2h-248q-34 0 -31 35l137 1112q3 35 39 35h776q35 0 29 -35z" />
    <glyph glyph-name="f.sc" horiz-adv-x="946" 
d="M1008 969q-6 -35 -39 -35h-516q-12 0 -15 -12l-22 -187q0 -12 10 -12h326q33 0 30 -35l-22 -178q-3 -35 -39 -35h-326q-12 0 -12 -12l-53 -428q-3 -35 -37 -35h-213q-34 0 -31 35l137 1112q3 35 39 35h774q35 0 29 -35z" />
    <glyph glyph-name="g.sc" horiz-adv-x="1142" 
d="M1118 737q-4 -12 -37 -12h-209q-11 0 -19 1.5t-11 3.5t-2 5v8q12 99 -37.5 152t-147.5 53q-100 0 -165 -56t-78 -165l-35 -287q-12 -98 40 -152.5t150 -54.5q92 0 153.5 48.5t80.5 136.5q0 12 -10 12h-158q-35 0 -29 35l17 135q3 35 36 35h414q35 0 29 -35l-19 -151
q-26 -214 -174.5 -338.5t-369.5 -124.5q-226 0 -346.5 124.5t-94.5 338.5l35 286q28 214 178 337.5t377 123.5q220 0 339 -122t93 -326v-11z" />
    <glyph glyph-name="gbreve.sc" horiz-adv-x="1142" 
d="M690 1255q-94 0 -156 59.5t-65 149.5q3 37 39 37h80q27 0 30 -33q4 -36 29.5 -59t59.5 -23q36 0 66 23t42 59q14 33 41 33h80q16 0 24 -9t5 -26q-25 -91 -102.5 -151t-172.5 -60zM1118 737q-4 -12 -37 -12h-209q-11 0 -19 1.5t-11 3.5t-2 5v8q12 99 -37.5 152t-147.5 53
q-100 0 -165 -56t-78 -165l-35 -287q-12 -98 40 -152.5t150 -54.5q92 0 153.5 48.5t80.5 136.5q0 12 -10 12h-158q-35 0 -29 35l17 135q3 35 36 35h414q35 0 29 -35l-19 -151q-26 -214 -174.5 -338.5t-369.5 -124.5q-226 0 -346.5 124.5t-94.5 338.5l35 286
q28 214 178 337.5t377 123.5q220 0 339 -122t93 -326v-11z" />
    <glyph glyph-name="uni0123.sc" horiz-adv-x="1142" 
d="M1118 737q-4 -12 -37 -12h-209q-11 0 -19 1.5t-11 3.5t-2 5v8q12 99 -37.5 152t-147.5 53q-100 0 -165 -56t-78 -165l-35 -287q-12 -98 40 -152.5t150 -54.5q92 0 153.5 48.5t80.5 136.5q0 12 -10 12h-158q-35 0 -29 35l17 135q3 35 36 35h414q35 0 29 -35l-19 -151
q-26 -214 -174.5 -338.5t-369.5 -124.5q-226 0 -346.5 124.5t-94.5 338.5l35 286q28 214 178 337.5t377 123.5q220 0 339 -122t93 -326v-11zM309 -375q-19 0 -24 11t6 30l121 187q15 24 43 24h200q20 0 25 -13t-8 -30l-152 -186q-16 -23 -43 -23h-168z" />
    <glyph glyph-name="gdotaccent.sc" horiz-adv-x="1142" 
d="M696 1300q-58 0 -89 37t-23 97t47.5 96.5t97.5 36.5q57 0 87.5 -36.5t23.5 -96.5q-8 -60 -47.5 -97t-96.5 -37zM1118 737q-4 -12 -37 -12h-209q-11 0 -19 1.5t-11 3.5t-2 5v8q12 99 -37.5 152t-147.5 53q-100 0 -165 -56t-78 -165l-35 -287q-12 -98 40 -152.5t150 -54.5
q92 0 153.5 48.5t80.5 136.5q0 12 -10 12h-158q-35 0 -29 35l17 135q3 35 36 35h414q35 0 29 -35l-19 -151q-26 -214 -174.5 -338.5t-369.5 -124.5q-226 0 -346.5 124.5t-94.5 338.5l35 286q28 214 178 337.5t377 123.5q220 0 339 -122t93 -326v-11z" />
    <glyph glyph-name="h.sc" horiz-adv-x="1052" 
d="M805 1147q3 35 37 35h213q33 0 30 -35l-137 -1112q-6 -35 -39 -35h-213q-31 0 -28 35l53 426q0 12 -10 12h-316q-12 0 -12 -12l-53 -426q-3 -35 -37 -35h-213q-34 0 -31 35l137 1112q3 35 39 35h211q34 0 31 -35l-51 -412q0 -12 10 -12h315q4 0 8.5 3.5t4.5 8.5z" />
    <glyph glyph-name="hbar.sc" horiz-adv-x="1052" 
d="M1217 1055q34 0 28 -35l-14 -127q-6 -35 -39 -35h-131q-11 0 -14 -12l-99 -811q-6 -35 -39 -35h-213q-31 0 -28 35l53 426q0 12 -10 12h-316q-12 0 -12 -12l-53 -426q-3 -35 -37 -35h-213q-34 0 -31 35l101 811q0 12 -11 12h-129q-33 0 -30 35l16 127q3 35 39 35h129
q12 0 12 12l10 80q3 35 39 35h211q34 0 31 -35l-10 -80q0 -12 10 -12h313q12 0 15 12l10 80q3 35 37 35h213q33 0 30 -35l-10 -80q-3 -12 10 -12h132zM741 723q13 0 13 12l14 111q0 12 -10 12h-316q-12 0 -12 -12l-14 -111q0 -12 10 -12h315z" />
    <glyph glyph-name="i.sc" horiz-adv-x="450" 
d="M80 0q-34 0 -31 35l137 1112q3 35 39 35h211q34 0 31 -35l-137 -1112q-3 -35 -37 -35h-213z" />
    <glyph glyph-name="iacute.sc" horiz-adv-x="450" 
d="M252 1327q-19 0 -24 11t5 30l121 186q16 25 43 25h201q20 0 25 -13t-9 -30l-151 -186q-16 -23 -43 -23h-168zM80 0q-34 0 -31 35l137 1112q3 35 39 35h211q34 0 31 -35l-137 -1112q-3 -35 -37 -35h-213z" />
    <glyph glyph-name="icircumflex.sc" horiz-adv-x="450" 
d="M80 1321q-20 0 -25 13t8 30l164 199q17 20 45 20h215q28 0 39 -20l119 -199q9 -17 0.5 -30t-29.5 -13h-145q-26 0 -39 22l-57 117q-3 6 -8.5 6t-8.5 -6l-88 -117q-19 -22 -43 -22h-147zM80 0q-34 0 -31 35l137 1112q3 35 39 35h211q34 0 31 -35l-137 -1112
q-3 -35 -37 -35h-213z" />
    <glyph glyph-name="idieresis.sc" horiz-adv-x="450" 
d="M158 1321q-62 0 -96 39.5t-27 103.5t52.5 105t107.5 41q61 0 94.5 -40.5t25.5 -105.5q-7 -64 -50.5 -103.5t-106.5 -39.5zM539 1321q-63 0 -97 39t-26 104t51.5 105.5t107.5 40.5q63 0 96 -40.5t25 -105.5q-7 -64 -50.5 -103.5t-106.5 -39.5zM80 0q-34 0 -31 35l137 1112
q3 35 39 35h211q34 0 31 -35l-137 -1112q-3 -35 -37 -35h-213z" />
    <glyph glyph-name="i.sc.loclTRK" horiz-adv-x="450" 
d="M348 1309q-58 0 -89 36.5t-23 96.5q6 60 46 96.5t99 36.5q56 0 86.5 -36.5t24.5 -96.5q-7 -60 -47.5 -96.5t-96.5 -36.5zM80 0q-34 0 -31 35l137 1112q3 35 39 35h211q34 0 31 -35l-137 -1112q-3 -35 -37 -35h-213z" />
    <glyph glyph-name="igrave.sc" horiz-adv-x="450" 
d="M459 1368q6 -19 -2 -30t-27 -11h-168q-24 0 -37 23l-104 186q-9 17 -2.5 30t26.5 13h201q28 0 37 -25zM80 0q-34 0 -31 35l137 1112q3 35 39 35h211q34 0 31 -35l-137 -1112q-3 -35 -37 -35h-213z" />
    <glyph glyph-name="ij.sc" horiz-adv-x="1460" 
d="M80 0q-34 0 -31 35l137 1112q3 35 39 35h211q34 0 31 -35l-137 -1112q-3 -35 -37 -35h-213zM883 -14q-201 0 -308.5 127t-82.5 336l4 28q3 35 39 35h210q34 0 31 -31l-4 -32q-12 -97 26.5 -156.5t114.5 -59.5q77 0 132 59.5t67 156.5l86 698q3 35 37 35h211q34 0 31 -35
l-86 -698q-26 -209 -166 -336t-342 -127z" />
    <glyph glyph-name="imacron.sc" horiz-adv-x="450" 
d="M92 1335q-35 0 -29 35l15 125q6 35 39 35h516q35 0 29 -35l-15 -125q-3 -35 -39 -35h-516zM80 0q-34 0 -31 35l137 1112q3 35 39 35h211q34 0 31 -35l-137 -1112q-3 -35 -37 -35h-213z" />
    <glyph glyph-name="iogonek.sc" horiz-adv-x="471" 
d="M260 -227q36 9 39 -25v-82q0 -32 -29 -41q-40 -13 -82.5 -17t-87.5 3t-77.5 39t-40.5 86q-16 133 133 250q7 4 5.5 9t-9.5 5h-31q-34 0 -31 35l137 1112q3 35 39 35h211q34 0 31 -35l-137 -1120q-3 -26 -29 -43q-138 -93 -129 -168q4 -30 28.5 -40.5t59.5 -2.5z" />
    <glyph glyph-name="j.sc" horiz-adv-x="1009" 
d="M432 -14q-201 0 -309 127t-82 336l4 28q3 35 37 35h213q34 0 31 -31l-4 -32q-12 -97 26 -156.5t113 -59.5q78 0 133.5 59.5t67.5 156.5l86 698q3 35 36 35h211q35 0 29 -35l-84 -698q-26 -209 -166 -336t-342 -127z" />
    <glyph glyph-name="k.sc" horiz-adv-x="1073" 
d="M80 0q-34 0 -31 35l137 1112q3 35 39 35h211q34 0 31 -35l-53 -426q0 -8 4 -10t10 4l391 446q18 21 45 21h232q20 0 24.5 -12t-10.5 -31l-403 -459q-5 -6 -2 -16l290 -623q9 -17 0.5 -29t-28.5 -12h-236q-25 0 -37 23l-202 440q-2 6 -7 5.5t-10 -5.5l-104 -123
q-4 -6 -4 -14l-37 -291q-3 -35 -37 -35h-213z" />
    <glyph glyph-name="uni0137.sc" horiz-adv-x="1073" 
d="M80 0q-34 0 -31 35l137 1112q3 35 39 35h211q34 0 31 -35l-53 -426q0 -8 4 -10t10 4l391 446q18 21 45 21h232q20 0 24.5 -12t-10.5 -31l-403 -459q-5 -6 -2 -16l290 -623q9 -17 0.5 -29t-28.5 -12h-236q-25 0 -37 23l-202 440q-2 6 -7 5.5t-10 -5.5l-104 -123
q-4 -6 -4 -14l-37 -291q-3 -35 -37 -35h-213zM266 -360q-20 0 -25 11t7 30l119 186q15 24 43 24h200q21 0 26 -13t-9 -30l-150 -186q-19 -22 -45 -22h-166z" />
    <glyph glyph-name="l.sc" horiz-adv-x="972" 
d="M80 0q-34 0 -31 35l137 1112q3 35 39 35h211q34 0 31 -35l-109 -887q-3 -12 11 -12h524q35 0 29 -35l-21 -178q-6 -35 -39 -35h-782z" />
    <glyph glyph-name="lacute.sc" horiz-adv-x="972" 
d="M248 1305q-20 0 -25.5 11t6.5 30l119 186q15 24 43 24h201q21 0 25.5 -13t-9.5 -30l-149 -186q-19 -22 -45 -22h-166zM80 0q-34 0 -31 35l137 1112q3 35 39 35h211q34 0 31 -35l-109 -887q-3 -12 11 -12h524q35 0 29 -35l-21 -178q-6 -35 -39 -35h-782z" />
    <glyph glyph-name="lcaron.sc" horiz-adv-x="972" 
d="M221 1282q-24 0 -37 23l-102 194q-8 17 0 30t29 13h141q26 0 39 -22l57 -117q3 -6 8.5 -6t8.5 6l88 117q19 22 43 22h141q20 0 25 -13t-9 -30l-153 -194q-20 -23 -43 -23h-236zM80 0q-34 0 -31 35l137 1112q3 35 39 35h211q34 0 31 -35l-109 -887q-3 -12 11 -12h524
q35 0 29 -35l-21 -178q-6 -35 -39 -35h-782z" />
    <glyph glyph-name="uni013C.sc" horiz-adv-x="972" 
d="M80 0q-34 0 -31 35l137 1112q3 35 39 35h211q34 0 31 -35l-109 -887q-3 -12 11 -12h524q35 0 29 -35l-21 -178q-6 -35 -39 -35h-782zM207 -360q-20 0 -26 11t5 30l121 186q15 24 43 24h201q21 0 25.5 -13t-9.5 -30l-149 -186q-19 -22 -45 -22h-166z" />
    <glyph glyph-name="lslash.sc" horiz-adv-x="1050" 
d="M358 260q-2 -5 1.5 -8.5t9.5 -3.5h524q35 0 29 -35l-21 -178q-6 -35 -39 -35h-782q-34 0 -31 35l33 260q1 7 -2.5 9t-9.5 -3l-54 -39q-29 -23 -47 4l-63 88q-15 27 10 49l190 148q9 6 9 14l71 582q3 35 39 35h211q34 0 31 -35l-41 -330q-2 -8 2 -11t10 3l359 278
q31 24 47 -4l65 -90q16 -26 -10 -49l-498 -385q-8 -5 -8 -14z" />
    <glyph glyph-name="m.sc" horiz-adv-x="1216" 
d="M80 0q-34 0 -31 35l137 1112q3 35 39 35h213q28 0 37 -23l180 -383q7 -14 17 0l272 383q17 23 43 23h213q35 0 29 -35l-135 -1112q-6 -35 -39 -35h-213q-32 0 -29 35l88 727q1 9 -3 10.5t-9 -6.5l-195 -277q-18 -24 -43 -24h-53q-25 0 -37 24l-127 277q-4 8 -9 6.5
t-5 -10.5l-90 -727q-3 -35 -37 -35h-213z" />
    <glyph glyph-name="n.sc" horiz-adv-x="1126" 
d="M80 0q-34 0 -31 35l137 1112q3 35 39 35h217q30 0 39 -25l289 -670q2 -6 5 -7t5.5 2.5t3.5 9.5l78 655q3 35 37 35h213q34 0 31 -35l-137 -1112q-3 -35 -39 -35h-217q-30 0 -39 25l-287 680q-2 6 -5 7t-5.5 -2.5t-3.5 -9.5l-80 -665q-3 -35 -37 -35h-213z" />
    <glyph glyph-name="nacute.sc" horiz-adv-x="1126" 
d="M571 1327q-19 0 -24 11t6 30l121 186q16 25 43 25h201q20 0 25 -13t-9 -30l-150 -186q-20 -23 -45 -23h-168zM80 0q-34 0 -31 35l137 1112q3 35 39 35h217q30 0 39 -25l289 -670q2 -6 5 -7t5.5 2.5t3.5 9.5l78 655q3 35 37 35h213q34 0 31 -35l-137 -1112q-3 -35 -39 -35
h-217q-30 0 -39 25l-287 680q-2 6 -5 7t-5.5 -2.5t-3.5 -9.5l-80 -665q-3 -35 -37 -35h-213z" />
    <glyph glyph-name="ncaron.sc" horiz-adv-x="1126" 
d="M545 1305q-24 0 -37 22l-100 195q-9 17 -1.5 30t27.5 13h144q23 0 36 -23l60 -117q2 -6 7 -6t9 6l88 117q16 23 41 23h142q21 0 25.5 -13t-9.5 -30l-152 -195q-19 -22 -43 -22h-237zM80 0q-34 0 -31 35l137 1112q3 35 39 35h217q30 0 39 -25l289 -670q2 -6 5 -7t5.5 2.5
t3.5 9.5l78 655q3 35 37 35h213q34 0 31 -35l-137 -1112q-3 -35 -39 -35h-217q-30 0 -39 25l-287 680q-2 6 -5 7t-5.5 -2.5t-3.5 -9.5l-80 -665q-3 -35 -37 -35h-213z" />
    </font>
</defs>
</svg>
